<?xml version="1.0" standalone="no"?>
<!DOCTYPE svg PUBLIC "-//W3C//DTD SVG 1.1//EN" "http://www.w3.org/Graphics/SVG/1.1/DTD/svg11.dtd" >
<svg xmlns="http://www.w3.org/2000/svg" xmlns:xlink="http://www.w3.org/1999/xlink" version="1.1">
<metadata>
Created by FontForge 20201107 at Thu Dec  5 17:18:09 2019
 By 
Copyright 2017 The Inria Sans Project Authors (https://github.com/BlackFoundryCom/InriaFonts)
</metadata>
<defs>
<font id="InriaSans-Regular" horiz-adv-x="588" >
  <font-face 
    font-family="Inria Sans"
    font-weight="400"
    font-stretch="normal"
    units-per-em="1000"
    panose-1="0 0 0 0 0 0 0 0 0 0"
    ascent="800"
    descent="-200"
    x-height="495"
    cap-height="680"
    bbox="-176 -248 1281 990"
    underline-thickness="50"
    underline-position="-100"
    unicode-range="U+000D-FB04"
  />
<missing-glyph horiz-adv-x="684" 
d="M133 0v680h418v-680h-418zM220 81h244v517h-244v-517z" />
    <glyph glyph-name="ff" unicode="ff" horiz-adv-x="657" 
d="M411 0v423h-225v-423h-82v423h-86v72h86v75q0 45 15 84t50 62.5t93 23.5q54 0 109 -22l-24 -70q-45 17 -80 17q-38 0 -59.5 -22.5t-21.5 -72.5v-75h225v82q0 46 15.5 85.5t50.5 63.5t93 24q62 0 122 -26l-23 -69q-51 20 -89 20q-42 0 -64.5 -23t-22.5 -74v-83h162v-72
h-162v-423h-82z" />
    <glyph glyph-name="fi" unicode="fi" horiz-adv-x="582" 
d="M186 568v-73h307v-495h-82v423h-225v-423h-82v423h-86v72h86v72q0 49 18.5 90.5t61.5 67t116 25.5q39 0 84.5 -9t94.5 -31l-29 -65q-43 17 -80.5 23.5t-67.5 6.5q-55 0 -85.5 -25.5t-30.5 -81.5z" />
    <glyph glyph-name="fl" unicode="fl" horiz-adv-x="593" 
d="M557 70v-75h-22q-67 0 -93 35t-26 90v536q-67 19 -119 19q-55 0 -83 -25t-28 -82v-73h154v-72h-154v-423h-82v423h-86v72h86v72q0 49 18 90.5t60 67t113 25.5q44 0 96 -11t107 -36v-579q0 -27 9 -40.5t34 -13.5h16z" />
    <glyph glyph-name="ffi" unicode="ffi" horiz-adv-x="889" 
d="M411 0v423h-225v-423h-82v423h-86v72h86v75q0 45 15 84t50 62.5t93 23.5q54 0 109 -22l-24 -70q-45 17 -80 17q-38 0 -59.5 -22.5t-21.5 -72.5v-75h225v72q0 49 18.5 90.5t61.5 67t116 25.5q40 0 85 -9t94 -31l-29 -65q-43 17 -80.5 23.5t-67.5 6.5q-55 0 -85.5 -25
t-30.5 -82v-73h307v-495h-82v423h-225v-423h-82z" />
    <glyph glyph-name="ffl" unicode="ffl" horiz-adv-x="900" 
d="M186 570v-75h225v72q0 49 18 90.5t60 67t113 25.5q44 0 96 -11t107 -36v-579q0 -27 9 -40.5t34 -13.5h16v-75h-22q-67 0 -93 35t-26 90v536q-67 19 -119 19q-55 0 -83 -25t-28 -82v-73h154v-72h-154v-423h-82v423h-225v-423h-82v423h-86v72h86v75q0 45 15 84t50 62.5
t93 23.5q54 0 109 -22l-24 -70q-45 17 -80 17q-38 0 -59.5 -22.5t-21.5 -72.5z" />
    <glyph glyph-name="ft" unicode="ft" horiz-adv-x="695" 
d="M416 149v274h-230v-423h-82v423h-86v72h86v72q0 49 18 90.5t60 67t113 25.5q44 0 96 -11t107 -36v-208h162v-72h-162v-271q0 -50 16.5 -68.5t51.5 -18.5q18 0 38.5 5t46.5 18l24 -68q-58 -30 -123 -30q-52 0 -82 21t-42 57.5t-12 80.5zM186 568v-73h230v161
q-67 19 -119 19q-55 0 -83 -25t-28 -82z" />
    <glyph glyph-name="fft" unicode="fft" horiz-adv-x="1002" 
d="M186 570v-75h225v72q0 49 18 90.5t60 67t113 25.5q44 0 96 -11t107 -36v-208h162v-72h-162v-271q0 -50 16.5 -68.5t51.5 -18.5q18 0 38.5 5t46.5 18l24 -68q-58 -30 -123 -30q-52 0 -82 21t-42 57.5t-12 80.5v274h-230v-423h-82v423h-225v-423h-82v423h-86v72h86v75
q0 45 15 84t50 62.5t93 23.5q54 0 109 -22l-24 -70q-45 17 -80 17q-38 0 -59.5 -22.5t-21.5 -72.5zM493 568v-73h230v161q-67 19 -119 19q-55 0 -83 -25t-28 -82z" />
    <glyph glyph-name="fb" unicode="fb" horiz-adv-x="884" 
d="M820 218q0 -104 -52 -166t-153 -62q-99 0 -199 53v613q-67 19 -119 19q-55 0 -83 -25t-28 -82v-73h154v-72h-154v-423h-82v423h-86v72h86v72q0 49 18 90.5t60 67t113 25.5q44 0 96 -11t107 -36v-276q45 43 82.5 60.5t76.5 17.5q78 0 120.5 -60t42.5 -169v-58zM638 428
q-29 0 -60 -15.5t-80 -62.5v-261q59 -25 111 -25q68 0 97 41.5t29 112.5v58q0 78 -24.5 115t-72.5 37z" />
    <glyph glyph-name="ffb" unicode="ffb" horiz-adv-x="1191" 
d="M186 570v-75h225v72q0 49 18 90.5t60 67t113 25.5q44 0 96 -11t107 -36v-276q45 43 82.5 60.5t76.5 17.5q78 0 120.5 -60t42.5 -169v-58q0 -104 -52 -166t-153 -62q-99 0 -199 53v613q-67 19 -119 19q-55 0 -83 -25t-28 -82v-73h154v-72h-154v-423h-82v423h-225v-423h-82
v423h-86v72h86v75q0 45 15 84t50 62.5t93 23.5q54 0 109 -22l-24 -70q-45 17 -80 17q-38 0 -59.5 -22.5t-21.5 -72.5zM945 428q-29 0 -60 -15.5t-80 -62.5v-261q59 -25 111 -25q68 0 97 41.5t29 112.5v58q0 78 -24.5 115t-72.5 37z" />
    <glyph glyph-name="fff" unicode="fff" horiz-adv-x="964" 
d="M411 0v423h-225v-423h-82v423h-86v72h86v75q0 45 15 84t50 62.5t93 23.5q54 0 109 -22l-24 -70q-45 17 -80 17q-38 0 -59.5 -22.5t-21.5 -72.5v-75h225v75q0 45 15 84t50 62.5t93 23.5q54 0 109 -22l-24 -70q-45 17 -80 17q-38 0 -59.5 -22.5t-21.5 -72.5v-75h225v82
q0 46 15.5 85.5t50.5 63.5t93 24q62 0 122 -26l-23 -69q-51 20 -89 20q-42 0 -64.5 -23t-22.5 -74v-83h162v-72h-162v-423h-82v423h-225v-423h-82z" />
    <glyph glyph-name="fh" unicode="fh" horiz-adv-x="899" 
d="M340 423h-154v-423h-82v423h-86v72h86v72q0 49 18 90.5t60 67t113 25.5q44 0 96 -11t107 -36v-274q52 43 94 59.5t82 16.5q69 0 105.5 -43.5t36.5 -123.5v-338h-82v326q0 102 -80 102q-28 0 -65 -14t-91 -57v-357h-82v656q-67 19 -119 19q-55 0 -83 -25t-28 -82v-73h154
v-72z" />
    <glyph glyph-name="ffh" unicode="ffh" horiz-adv-x="1206" 
d="M411 0v423h-225v-423h-82v423h-86v72h86v75q0 45 15 84t50 62.5t93 23.5q54 0 109 -22l-24 -70q-45 17 -80 17q-38 0 -59.5 -22.5t-21.5 -72.5v-75h225v72q0 49 18 90.5t60 67t113 25.5q44 0 96 -11t107 -36v-274q52 43 94 59.5t82 16.5q69 0 105.5 -43.5t36.5 -123.5
v-338h-82v326q0 102 -80 102q-28 0 -65 -14t-91 -57v-357h-82v656q-67 19 -119 19q-55 0 -83 -25t-28 -82v-73h154v-72h-154v-423h-82z" />
    <glyph glyph-name="fj" unicode="fj" horiz-adv-x="582" 
d="M186 568v-73h307v-518q0 -58 -17 -103t-58.5 -71t-115.5 -26v78q53 0 81 25t28 97v446h-225v-423h-82v423h-86v72h86v72q0 49 18.5 90.5t61.5 67t116 25.5q39 0 84.5 -9t94.5 -31l-29 -65q-43 17 -80.5 23.5t-67.5 6.5q-55 0 -85.5 -25.5t-30.5 -81.5z" />
    <glyph glyph-name="ffj" unicode="ffj" horiz-adv-x="889" 
d="M493 568v-73h307v-518q0 -58 -17 -103t-58.5 -71t-115.5 -26v78q53 0 81 25t28 97v446h-225v-423h-82v423h-225v-423h-82v423h-86v72h86v75q0 45 15 84t50 62.5t93 23.5q54 0 109 -22l-24 -70q-45 17 -80 17q-38 0 -59.5 -22.5t-21.5 -72.5v-75h225v72q0 49 18.5 90.5
t61.5 67t116 25.5q40 0 85 -9t94 -31l-29 -65q-43 17 -80.5 23.5t-67.5 6.5q-55 0 -85.5 -25t-30.5 -82z" />
    <glyph glyph-name="fk" unicode="fk" horiz-adv-x="836" 
d="M340 423h-154v-423h-82v423h-86v72h86v72q0 49 18 90.5t60 67t113 25.5q44 0 96 -11t107 -36v-461q65 63 115.5 123t92.5 130h94q-36 -60 -73.5 -110.5t-84.5 -102.5l178 -282h-99l-139 229q-19 -19 -40 -39t-44 -40v-150h-82v656q-67 19 -119 19q-55 0 -83 -25t-28 -82
v-73h154v-72z" />
    <glyph glyph-name="ffk" unicode="ffk" horiz-adv-x="1143" 
d="M411 0v423h-225v-423h-82v423h-86v72h86v75q0 45 15 84t50 62.5t93 23.5q54 0 109 -22l-24 -70q-45 17 -80 17q-38 0 -59.5 -22.5t-21.5 -72.5v-75h225v72q0 49 18 90.5t60 67t113 25.5q44 0 96 -11t107 -36v-461q65 63 115.5 123t92.5 130h94q-36 -60 -73.5 -110.5
t-84.5 -102.5l178 -282h-99l-139 229q-19 -19 -40 -39t-44 -40v-150h-82v656q-67 19 -119 19q-55 0 -83 -25t-28 -82v-73h154v-72h-154v-423h-82z" />
    <glyph glyph-name=".notdef" horiz-adv-x="684" 
d="M133 0v680h418v-680h-418zM220 81h244v517h-244v-517z" />
    <glyph glyph-name=".null" horiz-adv-x="0" 
 />
    <glyph glyph-name="nonmarkingreturn" horiz-adv-x="333" 
 />
    <glyph glyph-name="NULL" horiz-adv-x="0" 
 />
    <glyph glyph-name="NULL" horiz-adv-x="0" 
 />
    <glyph glyph-name="CR" unicode="&#xd;" horiz-adv-x="218" 
 />
    <glyph glyph-name="space" unicode=" " horiz-adv-x="218" 
 />
    <glyph glyph-name="exclam" unicode="!" horiz-adv-x="280" 
d="M173 182h-66l-8 248v250h82v-250zM186 0h-92v91h92v-91z" />
    <glyph glyph-name="quotedbl" unicode="&#x22;" horiz-adv-x="353" 
d="M123 430h-54l-13 172v78h80v-78zM284 430h-54l-13 172v78h80v-78z" />
    <glyph glyph-name="numbersign" unicode="#" horiz-adv-x="638" 
d="M299 0l61 195h-172l-61 -195h-71l61 195h-101v66h121l49 157h-100v66h120l61 196h72l-61 -196h171l61 196h72l-61 -196h101v-66h-122l-49 -157h101v-66h-121l-61 -195h-71zM208 261h172l49 157h-172z" />
    <glyph glyph-name="dollar" unicode="$" horiz-adv-x="506" 
d="M464 183q0 -76 -40 -126.5t-127 -63.5v-126h-80v124q-42 2 -87.5 13.5t-92.5 33.5l27 74q53 -24 95.5 -34t85.5 -10q63 0 97 27.5t34 80.5q0 44 -23.5 74t-76.5 46l-81 24q-76 23 -112 69.5t-36 114.5q0 47 17 86.5t54.5 65.5t98.5 32v125h80v-125q35 -4 72 -14.5
t74 -27.5l-28 -75q-48 21 -86.5 30.5t-73.5 9.5q-57 0 -88.5 -23.5t-31.5 -77.5q0 -39 21 -65.5t75 -43.5l81 -24q152 -45 152 -194z" />
    <glyph glyph-name="percent" unicode="%" horiz-adv-x="760" 
d="M309 546v-31q0 -67 -35.5 -103.5t-98.5 -36.5q-64 0 -99 36.5t-35 103.5v31q0 66 35 102.5t99 36.5q63 0 98.5 -36.5t35.5 -102.5zM518 680h71l-348 -680h-71zM243 546q0 38 -18 58t-50 20t-50 -20t-18 -58v-31q0 -39 18 -59t50 -20t50 20t18 59v31zM718 166v-31
q0 -67 -35.5 -103.5t-98.5 -36.5q-64 0 -99 36.5t-35 103.5v31q0 66 35 102.5t99 36.5t99 -36.5t35 -102.5zM653 166q0 78 -69 78q-32 0 -50 -20t-18 -58v-31q0 -39 18 -59t50 -20q69 0 69 79v31z" />
    <glyph glyph-name="ampersand" unicode="&#x26;" horiz-adv-x="560" 
d="M234 65q48 0 79 23.5t38 62.5t-18 86l67 40l161 -277h-92l-64 116q-8 -54 -54 -90t-122 -36q-89 0 -138 48.5t-49 126.5q0 63 33.5 108.5t100.5 88.5q-95 80 -95 172q0 66 45 111t129 45q78 0 124 -41.5t46 -117.5q0 -68 -36 -109.5t-93 -76.5l-71 -43q-55 -33 -77 -64.5
t-22 -70.5q0 -53 31 -77.5t77 -24.5zM163 532q0 -28 16 -61.5t56 -72.5l21 13q44 28 65 53.5t21 65.5q0 45 -24.5 65.5t-61.5 20.5q-40 0 -66.5 -21t-26.5 -63z" />
    <glyph glyph-name="quotesingle" unicode="'" horiz-adv-x="192" 
d="M123 430h-54l-13 172v78h80v-78z" />
    <glyph glyph-name="parenleft" unicode="(" horiz-adv-x="315" 
d="M60 317q0 121 48 230.5t149 202.5l55 -56q-86 -85 -126.5 -177.5t-40.5 -199.5v-37q0 -108 40.5 -200.5t126.5 -176.5l-55 -56q-101 93 -149 202.5t-48 230.5v37z" />
    <glyph glyph-name="parenright" unicode=")" horiz-adv-x="315" 
d="M255 280q0 -121 -48 -230.5t-149 -202.5l-56 56q87 84 127.5 176.5t40.5 200.5v37q0 107 -40.5 199.5t-127.5 177.5l56 56q101 -93 149 -202.5t48 -230.5v-37z" />
    <glyph glyph-name="asterisk" unicode="*" horiz-adv-x="404" 
d="M343 361l-60 -44l-19 26l-62 116l-62 -117l-19 -25l-60 44l19 25l91 94l-129 24l-31 10l23 71l30 -11l118 -56l-17 130v32h74v-32l-18 -130l118 57l31 10l22 -70l-30 -11l-129 -23l91 -94z" />
    <glyph glyph-name="plus" unicode="+" 
d="M501 262h-170v-175h-75v175h-169v72h169v175h75v-175h170v-72z" />
    <glyph glyph-name="comma" unicode="," horiz-adv-x="192" 
d="M137 91v-19q0 -73 -18 -139t-65 -141l-54 30q25 48 36.5 87.5t15 82t3.5 99.5h82z" />
    <glyph glyph-name="hyphen" unicode="-" horiz-adv-x="392" 
d="M56 267v72h280v-72h-280z" />
    <glyph glyph-name="period" unicode="." horiz-adv-x="192" 
d="M142 0h-92v91h92v-91z" />
    <glyph glyph-name="slash" unicode="/" horiz-adv-x="364" 
d="M289 740h84l-329 -883h-83z" />
    <glyph glyph-name="zero" unicode="0" horiz-adv-x="613" 
d="M537 415v-149q0 -136 -61 -206t-170 -70t-169.5 70t-60.5 206v149q0 135 61 205t169 70q109 0 170 -70t61 -205zM449 415q0 104 -37.5 150t-105.5 46q-67 0 -104.5 -46t-37.5 -150v-149q0 -103 37.5 -150.5t104.5 -47.5q68 0 105.5 47.5t37.5 150.5v149z" />
    <glyph glyph-name="one" unicode="1" horiz-adv-x="366" 
d="M19 586l162 94h79v-680h-85v588l-118 -68z" />
    <glyph glyph-name="two" unicode="2" horiz-adv-x="493" 
d="M435 0h-388v66q0 75 18.5 126t50 84.5t70.5 53.5l65 33q46 24 73.5 50t27.5 75v17q0 56 -31.5 81t-92.5 25q-34 0 -72 -8.5t-84 -28.5l-28 73q50 23 96.5 33t89.5 10q111 0 159 -51.5t48 -133.5v-17q0 -54 -20.5 -90t-54 -60.5t-71.5 -43.5l-65 -34q-47 -25 -69.5 -69
t-24.5 -112h303v-79z" />
    <glyph glyph-name="three" unicode="3" horiz-adv-x="498" 
d="M432 177q0 -82 -51 -134.5t-164 -52.5q-45 0 -93.5 10.5t-100.5 33.5l26 72q50 -20 89.5 -29t76.5 -9q62 0 96.5 26t34.5 85v16q0 50 -29 80t-89 30h-100v76h100q57 0 84 28.5t27 77.5v14q0 59 -32 84.5t-89 25.5q-35 0 -72 -8.5t-84 -28.5l-28 73q50 23 96.5 33t89.5 10
q108 0 157 -52t49 -135v-14q0 -50 -24 -87.5t-65 -58.5q44 -20 69.5 -58.5t25.5 -91.5v-16z" />
    <glyph glyph-name="four" unicode="4" horiz-adv-x="508" 
d="M481 163h-75v-163h-82v163h-292v67q77 117 139.5 228t103.5 222h92q-42 -109 -101.5 -217t-136.5 -223h195v124h82v-124h75v-77z" />
    <glyph glyph-name="five" unicode="5" horiz-adv-x="507" 
d="M68 354l20 326h338v-80h-261l-12 -195q44 15 95 15q94 0 150 -50t56 -148v-30q0 -89 -52 -145.5t-167 -56.5q-45 0 -93.5 10.5t-100.5 33.5l27 72q49 -21 89 -29.5t77 -8.5q62 0 97 28.5t35 95.5v30q0 55 -31.5 88t-95.5 33q-30 0 -59 -7.5t-61 -21.5z" />
    <glyph glyph-name="six" unicode="6" horiz-adv-x="564" 
d="M512 193q0 -60 -25.5 -105.5t-73 -71.5t-113.5 -26q-108 0 -165.5 72.5t-57.5 204.5v148q0 140 63.5 207.5t173.5 67.5q39 0 84 -9.5t95 -32.5l-31 -73q-43 20 -79.5 28t-65.5 8q-72 0 -114.5 -44t-42.5 -152v-58q35 32 76 50t87 18q88 0 138.5 -55.5t50.5 -146.5v-30z
M160 267q0 -100 36 -149.5t104 -49.5q61 0 94.5 33.5t33.5 91.5v30q0 57 -30 91t-85 34q-42 0 -80.5 -18t-72.5 -50v-13z" />
    <glyph glyph-name="seven" unicode="7" horiz-adv-x="470" 
d="M435 610q-75 -153 -127 -305.5t-79 -304.5h-89q27 150 78 300t124 300h-314v80h407v-70z" />
    <glyph glyph-name="eight" unicode="8" horiz-adv-x="558" 
d="M496 179q0 -53 -23.5 -96t-72.5 -68t-126 -25q-74 0 -121 24t-69 63.5t-22 88.5q0 53 26 96.5t84 80.5q-46 26 -71 66t-25 98q0 48 22 89.5t67 67.5t112 26q69 0 114.5 -24t67.5 -64t22 -90q0 -49 -22.5 -89t-74.5 -75q55 -27 83.5 -67t28.5 -102zM263 393l55 -19
q45 35 61.5 66t16.5 64q0 50 -29 80t-88 30q-52 0 -85 -27t-33 -80q0 -42 23.5 -68.5t78.5 -45.5zM147 177q0 -51 32.5 -81.5t97.5 -30.5q63 0 98.5 28.5t35.5 81.5q0 46 -25.5 71.5t-89.5 47.5l-58 20q-51 -37 -71 -69.5t-20 -67.5z" />
    <glyph glyph-name="nine" unicode="9" horiz-adv-x="564" 
d="M486 264q0 -139 -63 -206.5t-174 -67.5q-39 0 -83.5 9t-94.5 32l30 73q44 -19 80.5 -27.5t65.5 -8.5q71 0 114 44t43 152v59q-36 -31 -77 -50t-87 -19q-88 0 -138 55.5t-50 146.5v30q0 59 25.5 105t73 72.5t113.5 26.5q107 0 164.5 -73t57.5 -205v-148zM135 456
q0 -57 30.5 -91t85.5 -34q42 0 80.5 18.5t72.5 50.5v12q0 101 -36.5 150t-104.5 49q-60 0 -94 -35t-34 -90v-30z" />
    <glyph glyph-name="colon" unicode=":" horiz-adv-x="192" 
d="M142 403h-92v92h92v-92zM142 0h-92v91h92v-91z" />
    <glyph glyph-name="semicolon" unicode=";" horiz-adv-x="192" 
d="M142 403h-92v92h92v-92zM137 91v-19q0 -73 -18 -139.5t-65 -140.5l-54 30q25 48 36.5 87.5t15 82t3.5 99.5h82z" />
    <glyph glyph-name="less" unicode="&#x3c;" 
d="M501 187v-83l-414 168v55l414 165v-78l-298 -112z" />
    <glyph glyph-name="equal" unicode="=" 
d="M87 366v72h414v-72h-414zM87 166v72h414v-72h-414z" />
    <glyph glyph-name="greater" unicode="&#x3e;" 
d="M501 269l-414 -165v79l298 112l-298 115v82l414 -168v-55z" />
    <glyph glyph-name="question" unicode="?" horiz-adv-x="434" 
d="M197 614q-34 0 -73 -9t-86 -30l-28 72q50 23 98.5 33t91.5 10q104 0 152 -48.5t48 -120.5v-18q0 -55 -18 -94t-55 -72l-34 -31q-33 -30 -42 -51.5t-9 -52.5v-20h-84v23q0 34 7 58.5t24 47t46 49.5l34 31q24 22 35 46.5t11 61.5v18q0 44 -29.5 70.5t-88.5 26.5zM247 0h-92
v91h92v-91z" />
    <glyph glyph-name="at" unicode="@" horiz-adv-x="950" 
d="M731 -167q-58 -26 -126.5 -41t-138.5 -15q-133 0 -226.5 54t-142.5 150t-49 223q0 104 32 192.5t91 154.5t141 102.5t181 36.5q92 0 167 -31t130 -86t84.5 -128.5t29.5 -159.5q0 -83 -28.5 -148t-78 -102t-112.5 -37q-48 0 -79.5 20t-40.5 63q-43 -48 -83.5 -68
t-80.5 -20q-47 0 -77.5 27.5t-41.5 76t-2 109.5l8 55q15 100 68.5 154.5t143.5 54.5q49 0 95.5 -16.5t90.5 -45.5l-43 -251q-10 -52 5.5 -71.5t43.5 -19.5q35 0 65.5 27t49.5 76.5t19 115.5q0 95 -42 170.5t-116.5 120t-174.5 44.5q-82 0 -150 -31t-116.5 -87.5t-75 -132.5
t-26.5 -165q0 -107 39.5 -187.5t116 -125t185.5 -44.5q62 0 124 14.5t114 39.5zM364 206q-10 -67 5.5 -103.5t53.5 -36.5q29 0 65 24t77 83l33 196q-49 27 -93 27q-59 0 -91 -36t-42 -99z" />
    <glyph glyph-name="A" unicode="A" horiz-adv-x="577" 
d="M466 0l-51 158h-258l-51 -158h-85l226 680h82l227 -680h-90zM220 354l-38 -117h207l-38 117l-65 210z" />
    <glyph glyph-name="B" unicode="B" horiz-adv-x="585" 
d="M106 0v680h200q98 0 144.5 -47.5t46.5 -127.5v-22q0 -44 -20 -78t-58 -54q53 -17 80.5 -55.5t27.5 -92.5v-22q0 -82 -47.5 -131.5t-148.5 -49.5h-225zM306 600h-113v-215h113q50 0 75.5 25.5t25.5 70.5v24q0 44 -25.5 69.5t-75.5 25.5zM331 305h-138v-226h138
q53 0 79.5 27t26.5 75v24q0 46 -26.5 73t-79.5 27z" />
    <glyph glyph-name="C" unicode="C" horiz-adv-x="529" 
d="M165 265q0 -94 37.5 -144.5t115.5 -50.5q34 0 67 8t79 28l29 -74q-49 -22 -93 -32t-85 -10q-118 0 -179 74t-61 201v150q0 127 61 201t179 74q41 0 85.5 -10t90.5 -32l-28 -75q-81 36 -145 36q-78 0 -115.5 -50t-37.5 -144v-150z" />
    <glyph glyph-name="D" unicode="D" horiz-adv-x="637" 
d="M106 0v680h211q117 0 180 -70.5t63 -194.5v-149q0 -125 -63 -195.5t-180 -70.5h-211zM315 598h-122v-517h122q155 0 155 185v149q0 183 -155 183z" />
    <glyph glyph-name="E" unicode="E" horiz-adv-x="531" 
d="M486 81v-81h-380v680h370v-82h-283v-213h253v-82h-253v-222h293z" />
    <glyph glyph-name="F" unicode="F" horiz-adv-x="506" 
d="M440 286h-247v-286h-87v680h364v-82h-277v-230h247v-82z" />
    <glyph glyph-name="G" unicode="G" horiz-adv-x="604" 
d="M536 47q-29 -19 -82.5 -38t-128.5 -19q-81 0 -136.5 34.5t-84 97t-28.5 144.5v149q0 128 64.5 201.5t187.5 73.5q45 0 94.5 -10t98.5 -33l-28 -75q-90 37 -164 37q-82 0 -122.5 -49.5t-40.5 -144.5v-149q0 -90 41 -143t124 -53q32 0 65.5 7t59.5 19v183h-127v77h207v-309
z" />
    <glyph glyph-name="H" unicode="H" horiz-adv-x="683" 
d="M490 0v303h-297v-303h-87v680h87v-295h297v295h87v-680h-87z" />
    <glyph glyph-name="I" unicode="I" horiz-adv-x="300" 
d="M193 0h-87v680h87v-680z" />
    <glyph glyph-name="J" unicode="J" horiz-adv-x="363" 
d="M27 -7v83q81 0 118.5 33t37.5 115v456h87v-456q0 -68 -21.5 -120.5t-74 -81.5t-147.5 -29z" />
    <glyph glyph-name="K" unicode="K" horiz-adv-x="596" 
d="M477 0l-194 321q-21 -22 -43.5 -45t-46.5 -46v-230h-87v680h87v-353q94 95 157 180t107 173h94q-45 -88 -93.5 -159.5t-110.5 -142.5l236 -378h-106z" />
    <glyph glyph-name="L" unicode="L" horiz-adv-x="506" 
d="M478 81v-81h-372v680h87v-599h285z" />
    <glyph glyph-name="M" unicode="M" horiz-adv-x="829" 
d="M208 680l207 -504l208 504h99v-680h-85v291l11 262l-195 -473h-82l-191 475l11 -264v-291h-85v680h102z" />
    <glyph glyph-name="N" unicode="N" horiz-adv-x="690" 
d="M106 0v680h91q91 -130 167.5 -261.5t143.5 -274.5l-10 260v276h85v-680h-91q-70 146 -144.5 284.5t-162.5 270.5l6 -277v-278h-85z" />
    <glyph glyph-name="O" unicode="O" horiz-adv-x="647" 
d="M569 415v-149q0 -127 -63.5 -201.5t-182.5 -74.5t-182.5 74.5t-63.5 201.5v149q0 126 63.5 200.5t182.5 74.5t182.5 -74.5t63.5 -200.5zM479 415q0 93 -39.5 143.5t-116.5 50.5q-76 0 -116 -50.5t-40 -143.5v-149q0 -94 40 -145t116 -51q77 0 116.5 51t39.5 145v149z" />
    <glyph glyph-name="P" unicode="P" horiz-adv-x="564" 
d="M106 0v680h212q98 0 149.5 -51.5t51.5 -137.5v-53q0 -86 -51.5 -138t-149.5 -52h-125v-248h-87zM318 598h-125v-269h125q54 0 82.5 29t28.5 80v53q0 50 -28.5 78.5t-82.5 28.5z" />
    <glyph glyph-name="Q" unicode="Q" horiz-adv-x="647" 
d="M562 -94v-89q-97 0 -147.5 34t-77.5 107l-11 32h-3q-119 0 -182.5 74.5t-63.5 201.5v149q0 126 63.5 200.5t182.5 74.5t182.5 -74.5t63.5 -200.5v-149q0 -102 -41 -171t-120 -93q14 -39 31.5 -59.5t46 -28t76.5 -8.5zM479 415q0 93 -39.5 143.5t-116.5 50.5
q-76 0 -116 -50.5t-40 -143.5v-149q0 -94 40 -145t116 -51q77 0 116.5 51t39.5 145v149z" />
    <glyph glyph-name="R" unicode="R" horiz-adv-x="601" 
d="M193 266v-266h-87v680h213q96 0 148.5 -50.5t52.5 -134.5v-43q0 -60 -27.5 -104t-78.5 -65q43 -69 80 -140t68 -143h-100q-57 136 -133 266h-136zM319 600h-126v-254h126q51 0 81 28.5t30 77.5v43q0 50 -30 77.5t-81 27.5z" />
    <glyph glyph-name="S" unicode="S" horiz-adv-x="506" 
d="M245 68q63 0 97 27.5t34 80.5q0 44 -23.5 74t-76.5 46l-81 24q-76 23 -112 69.5t-36 114.5q0 52 20.5 94t66 67t119.5 25q45 0 93 -10.5t97 -33.5l-28 -75q-48 21 -86.5 30.5t-73.5 9.5q-57 0 -88.5 -23.5t-31.5 -77.5q0 -39 21 -65.5t75 -43.5l81 -24q152 -45 152 -194
q0 -86 -52 -139.5t-167 -53.5q-47 0 -99.5 11.5t-108.5 36.5l27 74q53 -24 95.5 -34t85.5 -10z" />
    <glyph glyph-name="T" unicode="T" horiz-adv-x="509" 
d="M13 598v82h483v-82h-198v-598h-87v598h-198z" />
    <glyph glyph-name="U" unicode="U" horiz-adv-x="648" 
d="M92 680h90v-436q0 -82 34.5 -128t107.5 -46q74 0 108 46t34 128v436h90v-436q0 -119 -58 -186.5t-174 -67.5q-117 0 -174.5 67.5t-57.5 186.5v436z" />
    <glyph glyph-name="V" unicode="V" horiz-adv-x="563" 
d="M543 680l-217 -680h-88l-218 680h92l108 -345l65 -218l66 219l106 344h86z" />
    <glyph glyph-name="W" unicode="W" horiz-adv-x="860" 
d="M186 392l48 -275l157 563h81l157 -560l50 272l59 288h86l-150 -680h-88l-156 556l-156 -556h-89l-149 680h91z" />
    <glyph glyph-name="X" unicode="X" horiz-adv-x="548" 
d="M429 0l-162 277l-156 -277h-91l202 351l-192 329h99l150 -259l147 259h90l-192 -333l203 -347h-98z" />
    <glyph glyph-name="Y" unicode="Y" horiz-adv-x="524" 
d="M514 680l-208 -408v-272h-87v272l-209 408h94l163 -322l157 322h90z" />
    <glyph glyph-name="Z" unicode="Z" horiz-adv-x="508" 
d="M470 81v-81h-429v70l315 528h-305v82h409v-71l-316 -528h326z" />
    <glyph glyph-name="bracketleft" unicode="[" horiz-adv-x="346" 
d="M343 -71v-72h-237v883h237v-72h-155v-739h155z" />
    <glyph glyph-name="backslash" unicode="\" horiz-adv-x="364" 
d="M74 740l329 -883h-84l-328 883h83z" />
    <glyph glyph-name="bracketright" unicode="]" horiz-adv-x="346" 
d="M239 740v-883h-237v72h155v739h-155v72h237z" />
    <glyph glyph-name="asciicircum" unicode="^" 
d="M405 266l-114 297l-113 -297h-78l165 414h55l167 -414h-82z" />
    <glyph glyph-name="underscore" unicode="_" horiz-adv-x="390" 
d="M5 -157v61h380v-61h-380z" />
    <glyph glyph-name="grave" unicode="`" horiz-adv-x="500" 
d="M214 579l-98 130l79 36l90 -166h-71z" />
    <glyph glyph-name="a" unicode="a" horiz-adv-x="493" 
d="M450 -5q-46 0 -73.5 21t-38.5 52q-49 -43 -89 -60.5t-80 -17.5q-65 0 -96 42t-31 103q0 41 15 73t51 50.5t97 18.5q27 0 59 -3.5t65 -8.5v67q0 56 -24.5 76.5t-71.5 20.5q-64 0 -143 -35l-26 68q46 21 88 32t85 11q70 0 107 -23t51 -61t14 -83v-214q0 -23 9 -38.5
t36 -15.5h11v-75h-15zM123 136q0 -34 16 -55t46 -21q26 0 60 15.5t84 62.5v63q-68 11 -120 11q-46 0 -66 -19t-20 -57z" />
    <glyph glyph-name="b" unicode="b" horiz-adv-x="552" 
d="M488 218q0 -104 -52 -166t-153 -62q-100 0 -198 53v697h82v-312q45 42 82.5 59.5t76.5 17.5q78 0 120 -60t42 -169v-58zM306 428q-28 0 -59.5 -15t-79.5 -62v-262q59 -25 111 -25q67 0 96 41.5t29 112.5v58q0 78 -24 115t-73 37z" />
    <glyph glyph-name="c" unicode="c" horiz-adv-x="449" 
d="M146 277v-59q0 -76 28 -114.5t89 -38.5q60 0 129 31l25 -69q-82 -37 -159 -37q-96 0 -146 61t-50 167v59q0 106 50 167t146 61q36 0 74.5 -9.5t77.5 -26.5l-25 -70q-33 14 -63.5 22t-58.5 8q-61 0 -89 -38.5t-28 -113.5z" />
    <glyph glyph-name="d" unicode="d" horiz-adv-x="556" 
d="M389 0v69q-46 -44 -83.5 -61.5t-77.5 -17.5q-79 0 -121.5 60t-42.5 168v58q0 105 52.5 167t152.5 62q29 0 58 -6t58 -17v258h82v-740h-78zM149 218q0 -78 24.5 -114.5t73.5 -36.5q29 0 60 14.5t78 60.5v264q-29 13 -56 18.5t-53 5.5q-68 0 -97.5 -41t-29.5 -113v-58z" />
    <glyph glyph-name="e" unicode="e" horiz-adv-x="504" 
d="M447 29q-45 -22 -90 -30.5t-83 -8.5q-107 0 -159.5 61t-52.5 167v60q0 103 52.5 165t148.5 62q51 0 93.5 -20.5t68 -62t25.5 -106.5q0 -42 -12 -96h-295v-2q0 -76 31.5 -115t101.5 -39q32 0 70.5 8t75.5 25zM263 433q-58 0 -87.5 -37.5t-32.5 -105.5h224q3 18 3 34
q0 56 -31.5 82.5t-75.5 26.5z" />
    <glyph glyph-name="f" unicode="f" horiz-adv-x="350" 
d="M348 423h-162v-423h-82v423h-86v72h86v82q0 46 15.5 85.5t50.5 63.5t93 24q29 0 61.5 -6.5t60.5 -19.5l-23 -69q-51 20 -89 20q-42 0 -64.5 -23t-22.5 -74v-83h162v-72z" />
    <glyph glyph-name="g" unicode="g" horiz-adv-x="520" 
d="M484 -62q0 -73 -59.5 -117t-163.5 -44q-52 0 -108.5 14t-106.5 45l28 64q50 -28 96.5 -39.5t90.5 -11.5q68 0 105 22t37 59q0 27 -18 41.5t-58 14.5h-115q-65 0 -94 31t-29 68q0 26 12 51.5t34 50.5q-35 21 -56 57.5t-21 88.5q0 57 24.5 95t65.5 57.5t92 19.5h17
q35 0 64 -10h178v-73l-108 15q21 -18 34 -44.5t13 -64.5q0 -54 -24.5 -91t-65.5 -56.5t-91 -19.5h-17q-13 0 -25 1.5t-24 3.5q-29 -32 -29 -63q0 -40 56 -40h112q72 0 113 -32t41 -93zM257 232q39 0 69 25t30 76q0 50 -30 75.5t-69 25.5h-17q-40 0 -70 -25.5t-30 -75.5
q0 -51 30 -76t70 -25h17z" />
    <glyph glyph-name="h" unicode="h" horiz-adv-x="571" 
d="M326 428q-28 0 -65.5 -14t-90.5 -57v-357h-82v740h82v-311q52 44 94 60t82 16q69 0 105.5 -43.5t36.5 -123.5v-338h-82v326q0 102 -80 102z" />
    <glyph glyph-name="i" unicode="i" horiz-adv-x="259" 
d="M175 616h-92v92h92v-92zM170 0h-82v495h82v-495z" />
    <glyph glyph-name="j" unicode="j" horiz-adv-x="259" 
d="M175 616h-92v92h92v-92zM-20 -223v78q53 0 80.5 25t27.5 97v518h82v-518q0 -58 -17 -103t-58.5 -71t-114.5 -26z" />
    <glyph glyph-name="k" unicode="k" horiz-adv-x="508" 
d="M393 0l-139 229q-19 -19 -40 -39t-44 -40v-150h-82v740h82v-498q65 63 115.5 123t92.5 130h94q-36 -60 -73.5 -110.5t-84.5 -102.5l178 -282h-99z" />
    <glyph glyph-name="l" unicode="l" horiz-adv-x="264" 
d="M87 120v620h82v-616q0 -27 8.5 -40.5t34.5 -13.5h16v-75h-23q-66 0 -92 35t-26 90z" />
    <glyph glyph-name="m" unicode="m" horiz-adv-x="869" 
d="M321 428q-28 0 -63 -14.5t-88 -56.5v-357h-82v495h78v-69q53 44 94 61.5t81 17.5q47 0 78 -21.5t46 -61.5q55 47 98.5 65t85.5 18q66 0 101 -43.5t35 -123.5v-338h-82v326q0 102 -74 102q-28 0 -63.5 -14.5t-88.5 -56.5q1 -4 1 -9v-10v-338h-82v326q0 102 -75 102z" />
    <glyph glyph-name="n" unicode="n" horiz-adv-x="571" 
d="M326 428q-28 0 -65.5 -14t-90.5 -57v-357h-82v495h78v-69q53 45 96.5 62t83.5 17q69 0 105.5 -43.5t36.5 -123.5v-338h-82v326q0 102 -80 102z" />
    <glyph glyph-name="o" unicode="o" horiz-adv-x="541" 
d="M480 278v-60q0 -106 -54.5 -167t-155.5 -61q-100 0 -155 61t-55 167v60q0 104 54.5 165.5t155.5 61.5t155.5 -61.5t54.5 -165.5zM395 278q0 71 -32 111.5t-93 40.5q-60 0 -92.5 -40.5t-32.5 -111.5v-60q0 -74 32.5 -114t92.5 -40q61 0 93 40t32 114v60z" />
    <glyph glyph-name="p" unicode="p" horiz-adv-x="556" 
d="M286 -10q-56 0 -116 23v-226h-82v708h78v-70q46 44 84 62t78 18q79 0 121.5 -60t42.5 -169v-58q0 -104 -52.5 -166t-153.5 -62zM308 428q-29 0 -60 -15t-78 -61v-264q29 -13 56 -18.5t53 -5.5q68 0 98 41.5t30 112.5v58q0 78 -24.5 115t-74.5 37z" />
    <glyph glyph-name="q" unicode="q" horiz-adv-x="553" 
d="M467 451v-664h-82v280q-45 -43 -82.5 -60t-76.5 -17q-78 0 -120 60t-42 168v58q0 105 52.5 167t152.5 62q98 0 198 -54zM149 218q0 -78 24 -114.5t73 -36.5q29 0 60 15t79 61v262q-59 25 -111 25q-67 0 -96 -41t-29 -113v-58z" />
    <glyph glyph-name="r" unicode="r" horiz-adv-x="367" 
d="M348 423q-45 0 -87.5 -16t-90.5 -61v-346h-82v495h78v-80q51 50 93.5 70t88.5 20v-82z" />
    <glyph glyph-name="s" unicode="s" horiz-adv-x="431" 
d="M209 63q100 0 100 68q0 29 -18 46t-66 29l-55 14q-61 15 -91 52.5t-30 89.5q0 38 17 70.5t54 52.5t96 20q38 0 77.5 -8.5t80.5 -28.5l-26 -69q-73 33 -132 33q-87 0 -87 -65q0 -25 16 -43t60 -29l55 -14q66 -16 97 -52t31 -93q0 -41 -17.5 -74.5t-56 -52.5t-103.5 -19
q-43 0 -85.5 9t-87.5 29l22 68q43 -17 78 -25t71 -8z" />
    <glyph glyph-name="t" unicode="t" horiz-adv-x="380" 
d="M360 18q-56 -28 -119 -28q-54 0 -84.5 22t-43 59t-12.5 82v270h-86v72h86v138h82v-138h162v-72h-162v-267q0 -52 17.5 -71.5t54.5 -19.5q18 0 37.5 4.5t42.5 15.5z" />
    <glyph glyph-name="u" unicode="u" horiz-adv-x="559" 
d="M393 0v70q-52 -45 -93 -62.5t-82 -17.5q-66 0 -101 43.5t-35 122.5v339h82v-327q0 -52 18.5 -76.5t55.5 -24.5q28 0 63 14t87 56v358h82v-495h-77z" />
    <glyph glyph-name="v" unicode="v" horiz-adv-x="472" 
d="M450 495l-175 -495h-77l-177 495h85l83 -241l50 -151l49 151l81 241h81z" />
    <glyph glyph-name="w" unicode="w" horiz-adv-x="716" 
d="M685 495l-127 -495h-95l-104 406l-107 -406h-95l-126 495h84l50 -207l45 -205l107 412h87l107 -414l44 206l49 208h81z" />
    <glyph glyph-name="x" unicode="x" horiz-adv-x="463" 
d="M350 0l-123 193l-118 -193h-87l164 256l-152 239h91l109 -173l107 173h86l-151 -237l164 -258h-90z" />
    <glyph glyph-name="y" unicode="y" horiz-adv-x="472" 
d="M257 -50q-32 -90 -78.5 -131.5t-129.5 -41.5v81q34 1 58.5 9t44 32.5t37.5 72.5l10 25l-178 498h84l83 -241l51 -154l49 154l81 241h81z" />
    <glyph glyph-name="z" unicode="z" horiz-adv-x="412" 
d="M379 71v-71h-344v64l237 359h-227v72h324v-65l-238 -359h248z" />
    <glyph glyph-name="braceleft" unicode="{" horiz-adv-x="377" 
d="M374 -72v-72h-89q-96 0 -132 52.5t-18 140.5l20 98q11 51 -1.5 83t-68.5 32h-65v72h65q56 0 68.5 32t1.5 83l-20 98q-18 88 18 140.5t132 52.5h89v-72h-86q-49 0 -65 -29.5t-7 -72.5l20 -98q14 -69 -3.5 -112t-61.5 -58q44 -15 61.5 -58t3.5 -112l-20 -98q-9 -43 7 -72.5
t65 -29.5h86z" />
    <glyph glyph-name="bar" unicode="|" horiz-adv-x="295" 
d="M106 740h82v-953h-82v953z" />
    <glyph glyph-name="braceright" unicode="}" horiz-adv-x="377" 
d="M241 49q19 -88 -17 -140.5t-133 -52.5h-89v72h87q50 0 65.5 29.5t6.5 72.5l-20 98q-14 69 3.5 112t60.5 58q-43 15 -60.5 57.5t-3.5 112.5l20 98q9 43 -6.5 72.5t-65.5 29.5h-87v72h89q97 0 133 -52.5t17 -140.5l-20 -98q-10 -52 2 -84t68 -32h65v-72h-65q-56 0 -68 -32
t-2 -82z" />
    <glyph glyph-name="asciitilde" unicode="~" 
d="M382 208q-37 0 -62 17t-43.5 39t-35.5 39t-38 17q-18 0 -33.5 -19.5t-26.5 -79.5l-66 16q16 89 50 122t77 33q36 0 61 -17t44 -39t36 -39t38 -17q19 0 34 20t28 80l66 -16q-17 -90 -51.5 -123t-77.5 -33z" />
    <glyph glyph-name="uni00A0" unicode="&#xa0;" horiz-adv-x="218" 
 />
    <glyph glyph-name="exclamdown" unicode="&#xa1;" horiz-adv-x="280" 
d="M94 495h92v-92h-92v92zM107 312h66l7 -247v-250h-82v250z" />
    <glyph glyph-name="cent" unicode="&#xa2;" horiz-adv-x="449" 
d="M417 27q-57 -26 -117 -34v-118h-80v118q-77 12 -117.5 71t-40.5 154v59q0 95 40.5 154t117.5 71v118h80v-118q27 -4 54.5 -12.5t55.5 -20.5l-25 -70q-33 14 -63.5 22t-58.5 8q-61 0 -89 -38.5t-28 -113.5v-59q0 -76 28 -114.5t89 -38.5q60 0 129 31z" />
    <glyph glyph-name="sterling" unicode="&#xa3;" horiz-adv-x="486" 
d="M460 0h-391v69q56 59 75 96t19 70q0 23 -6 44h-96v76h65q-18 37 -34 77.5t-16 87.5q0 48 20 86.5t63 61t112 22.5q41 0 86 -10t93 -32l-28 -76q-46 20 -81.5 28.5t-67.5 8.5q-51 0 -79 -22.5t-28 -73.5q0 -43 17.5 -81.5t34.5 -76.5h173v-76h-146q2 -9 3 -18t1 -18
q0 -40 -18.5 -79.5t-56.5 -82.5h286v-81z" />
    <glyph glyph-name="currency" unicode="&#xa4;" horiz-adv-x="576" 
d="M547 79l-46 -47l-102 105q-48 -34 -111 -34q-64 0 -112 34l-102 -105l-46 47l102 105q-34 49 -34 116q0 33 8.5 62t24.5 53l-101 105l46 47l102 -104q48 34 112 34t112 -34l101 104l46 -47l-101 -104q34 -49 34 -116q0 -33 -9 -62.5t-25 -53.5zM288 170q52 0 85.5 35.5
t33.5 94.5t-33.5 94t-85.5 35t-86 -35t-34 -94t34 -94.5t86 -35.5z" />
    <glyph glyph-name="yen" unicode="&#xa5;" horiz-adv-x="554" 
d="M503 164h-183v-164h-87v164h-181v68h181v40l-31 60h-150v68h115l-143 280h94l163 -322l157 322h90l-143 -280h118v-68h-152l-31 -60v-40h183v-68z" />
    <glyph glyph-name="brokenbar" unicode="&#xa6;" horiz-adv-x="282" 
d="M100 740h82v-383h-82v383zM100 170h82v-383h-82v383z" />
    <glyph glyph-name="section" unicode="&#xa7;" horiz-adv-x="509" 
d="M448 -50q0 -74 -50.5 -123.5t-158.5 -49.5q-46 0 -97.5 11.5t-103.5 35.5l27 76q50 -22 92 -32.5t82 -10.5q57 0 88.5 21t31.5 64q0 35 -22.5 60t-74.5 42l-78 25q-72 24 -105 66t-33 97q0 45 24.5 84t65.5 63q-33 25 -48.5 60.5t-15.5 78.5q0 47 20 86t63 62.5t110 23.5
q41 0 86 -9.5t94 -30.5l-27 -75q-46 20 -82 27.5t-69 7.5q-50 0 -78 -21t-28 -67q0 -33 18 -57.5t67 -40.5l79 -25q142 -45 142 -163q0 -44 -23.5 -82.5t-67.5 -63.5q72 -49 72 -140zM230 147l82 -26q33 20 49.5 43.5t16.5 57.5q0 38 -23.5 61t-76.5 39l-80 26
q-63 -40 -63 -104q0 -34 20.5 -57t74.5 -40z" />
    <glyph glyph-name="dieresis" unicode="&#xa8;" horiz-adv-x="500" 
d="M197 619h-86v86h86v-86zM388 619h-86v86h86v-86z" />
    <glyph glyph-name="copyright" unicode="&#xa9;" horiz-adv-x="840" 
d="M420 -37q-81 0 -149 28t-118 79t-77.5 119.5t-27.5 150.5t27.5 150.5t77.5 119.5t118 79t149 28q80 0 148 -28t118 -79t78 -119.5t28 -150.5t-28 -150.5t-78 -119.5t-118 -79t-148 -28zM420 21q89 0 158.5 41t109.5 113t40 165t-40 165t-109.5 113t-158.5 41t-159 -41
t-109.5 -113t-39.5 -165t39.5 -165t109.5 -113t159 -41zM319 361v-41q0 -64 24.5 -97t78.5 -33t114 29l23 -61q-68 -35 -142 -35q-85 0 -129 52t-44 145v41q0 92 44 144t129 52q32 0 67 -7.5t66 -24.5l-23 -61q-27 12 -53 19t-52 7q-54 0 -78.5 -33t-24.5 -96z" />
    <glyph glyph-name="ordfeminine" unicode="&#xaa;" horiz-adv-x="335" 
d="M306 338q-29 0 -50.5 11t-30.5 32q-32 -27 -56.5 -36.5t-46.5 -9.5q-48 0 -70.5 28.5t-22.5 68.5q0 41 24.5 69t89.5 28q16 0 34.5 -2t38.5 -5v46q0 32 -15.5 44.5t-47.5 12.5q-24 0 -47 -6.5t-48 -18.5l-19 55q29 14 57 22t58 8q51 0 78 -16t37 -41t10 -53v-144
q0 -15 5 -24t20 -9h9v-60h-7zM93 434q0 -20 9.5 -32t28.5 -12q17 0 37 8.5t48 31.5v42q-20 3 -38.5 4.5t-30.5 1.5q-29 0 -41.5 -11t-12.5 -33z" />
    <glyph glyph-name="guillemotleft" unicode="&#xab;" horiz-adv-x="667" 
d="M322 105v-91l-284 207v53l284 204v-88l-202 -142zM612 105v-91l-284 207v53l284 204v-88l-202 -142z" />
    <glyph glyph-name="logicalnot" unicode="&#xac;" 
d="M87 376v72h414v-243h-75v171h-339z" />
    <glyph glyph-name="uni00AD" unicode="&#xad;" horiz-adv-x="0" 
 />
    <glyph glyph-name="registered" unicode="&#xae;" horiz-adv-x="543" 
d="M271 241q-67 0 -120 31t-83.5 85t-30.5 122q0 69 30.5 122.5t83.5 84.5t120 31t120 -31t83.5 -84.5t30.5 -122.5q0 -68 -30.5 -122t-83.5 -85t-120 -31zM271 290q53 0 93.5 24.5t64 67.5t23.5 97q0 55 -23.5 97.5t-64 67t-93.5 24.5q-52 0 -93 -24.5t-64.5 -67
t-23.5 -97.5q0 -54 23.5 -97t64.5 -67.5t93 -24.5zM190 353v255h87q39 0 60 -21t21 -56v-14q0 -47 -35 -67q14 -23 27 -47t23 -50h-57q-10 23 -20 44t-22 42h-33v-86h-51zM277 559h-36v-71h36q28 0 28 29v14q0 28 -28 28z" />
    <glyph glyph-name="macron" unicode="&#xaf;" horiz-adv-x="500" 
d="M393 672v-63h-286v63h286z" />
    <glyph glyph-name="degree" unicode="&#xb0;" horiz-adv-x="363" 
d="M181 366q-70 0 -113.5 45.5t-43.5 116.5q0 72 43.5 117t113.5 45q69 0 113 -45t44 -117q0 -47 -20 -84t-55.5 -57.5t-81.5 -20.5zM181 428q41 0 66.5 27t25.5 73t-25.5 73t-66.5 27t-66.5 -27t-25.5 -73t25.5 -73t66.5 -27z" />
    <glyph glyph-name="plusminus" unicode="&#xb1;" 
d="M501 302h-170v-171h-75v171h-169v72h169v171h75v-171h170v-72zM87 0v71h414v-71h-414z" />
    <glyph glyph-name="uni00B2" unicode="&#xb2;" horiz-adv-x="270" 
d="M240 445h-216v41q0 56 21 84.5t58 46.5l33 16q20 11 30 21.5t10 28.5v7q0 39 -52 39q-38 0 -87 -20l-15 59q53 22 103 22q62 0 89 -27.5t27 -71.5v-9q0 -40 -23 -62.5t-58 -39.5l-32 -16q-19 -9 -28 -21.5t-11 -35.5h151v-62z" />
    <glyph glyph-name="uni00B3" unicode="&#xb3;" horiz-adv-x="274" 
d="M235 536q0 -43 -28.5 -69.5t-90.5 -26.5q-24 0 -49.5 5t-49.5 16l17 57q22 -10 42 -13.5t38 -3.5q56 0 56 38v8q0 19 -14 30.5t-43 11.5h-43v55h43q28 0 41 11t13 29v7q0 20 -14.5 29t-37.5 9q-16 0 -33.5 -3.5t-39.5 -13.5l-19 58q24 11 48 15.5t46 4.5q60 0 87.5 -27
t27.5 -68v-7q0 -49 -47 -72q50 -21 50 -72v-8z" />
    <glyph glyph-name="acute" unicode="&#xb4;" horiz-adv-x="500" 
d="M286 579h-71l90 166l78 -36z" />
    <glyph glyph-name="uni00B5" unicode="&#xb5;" horiz-adv-x="566" 
d="M170 -213h-82v708h82v-327q0 -52 18.5 -76.5t55.5 -24.5q28 0 63 14t87 56v358h82v-371q0 -23 9 -38.5t36 -15.5h12v-75h-15q-50 0 -78.5 22t-36.5 56q-54 -46 -95 -64.5t-78 -18.5q-47 0 -76 26l16 -141v-88z" />
    <glyph glyph-name="paragraph" unicode="&#xb6;" horiz-adv-x="562" 
d="M43 491q0 86 51.5 137.5t149.5 51.5h298v-71h-87v-752h-87v752h-67v-361h-57q-98 0 -149.5 52t-51.5 138v53z" />
    <glyph glyph-name="periodcentered" unicode="&#xb7;" horiz-adv-x="500" 
d="M296 338h-92v92h92v-92z" />
    <glyph glyph-name="cedilla" unicode="&#xb8;" horiz-adv-x="500" 
d="M349 -132q0 -43 -31 -67t-82 -24q-21 0 -40.5 4t-38.5 11l11 56q17 -6 35 -9t32 -3q27 0 37 9t10 22q0 12 -10 21t-38 9q-6 0 -11.5 -0.5t-11.5 -1.5l-24 38l12 67h60l-9 -50q48 0 73.5 -22t25.5 -60z" />
    <glyph glyph-name="uni00B9" unicode="&#xb9;" horiz-adv-x="222" 
d="M21 735l91 50h56v-340h-64v269l-56 -30z" />
    <glyph glyph-name="ordmasculine" unicode="&#xba;" horiz-adv-x="348" 
d="M321 531v-42q0 -73 -38.5 -113.5t-108.5 -40.5t-108.5 40.5t-38.5 113.5v42q0 70 38 112t109 42t109 -42t38 -112zM256 531q0 44 -21.5 69t-60.5 25t-60.5 -25t-21.5 -69v-42q0 -46 21.5 -70t60.5 -24t60.5 24t21.5 70v42z" />
    <glyph glyph-name="guillemotright" unicode="&#xbb;" horiz-adv-x="667" 
d="M628 218l-284 -204v87l202 142l-202 143v92l284 -207v-53zM338 218l-284 -204v87l202 142l-202 143v92l284 -207v-53z" />
    <glyph glyph-name="onequarter" unicode="&#xbc;" horiz-adv-x="596" 
d="M21 630l91 50h56v-340h-64v269l-56 -30zM435 680h71l-348 -680h-71zM590 77h-37v-77h-59v77h-148v46q38 58 69 110.5t51 106.5h68q-20 -52 -48.5 -102t-65.5 -104h74v48h59v-48h37v-57z" />
    <glyph glyph-name="onehalf" unicode="&#xbd;" horiz-adv-x="639" 
d="M21 630l91 50h56v-340h-64v269l-56 -30zM435 680h71l-348 -680h-71zM609 0h-216v41q0 56 21 84.5t58 46.5l33 16q20 11 30 21.5t10 28.5v7q0 39 -52 39q-38 0 -87 -20l-15 59q53 22 103 22q62 0 89 -27.5t27 -71.5v-9q0 -40 -23 -62.5t-58 -39.5l-32 -16
q-19 -9 -28 -21.5t-11 -35.5h151v-62z" />
    <glyph glyph-name="threequarters" unicode="&#xbe;" horiz-adv-x="629" 
d="M235 431q0 -43 -28.5 -69.5t-90.5 -26.5q-24 0 -49.5 5t-49.5 16l17 57q22 -10 42 -13.5t38 -3.5q56 0 56 38v8q0 19 -14 30.5t-43 11.5h-43v55h43q28 0 41 11t13 29v7q0 20 -14.5 29t-37.5 9q-16 0 -33.5 -3.5t-39.5 -13.5l-19 58q24 11 48 15.5t46 4.5q60 0 87.5 -27
t27.5 -68v-7q0 -49 -47 -72q50 -21 50 -72v-8zM468 680h71l-348 -680h-71zM623 77h-37v-77h-59v77h-148v46q38 58 69 110.5t51 106.5h68q-20 -52 -48.5 -102t-65.5 -104h74v48h59v-48h37v-57z" />
    <glyph glyph-name="questiondown" unicode="&#xbf;" horiz-adv-x="434" 
d="M200 495h92v-92h-92v92zM250 -119q35 0 74 9t85 30l28 -72q-50 -23 -98.5 -33t-91.5 -10q-104 0 -152 48.5t-48 120.5v18q0 55 18 93.5t55 71.5l34 31q32 30 41.5 52t9.5 53v19h84v-22q0 -34 -7 -59t-24 -47t-46 -49l-34 -31q-24 -22 -35 -47t-11 -61v-18q0 -44 30 -70.5
t88 -26.5z" />
    <glyph glyph-name="Agrave" unicode="&#xc0;" horiz-adv-x="577" 
d="M466 0l-51 158h-258l-51 -158h-85l226 680h82l227 -680h-90zM220 354l-38 -117h207l-38 117l-65 210zM252 764l-98 130l79 36l90 -166h-71z" />
    <glyph glyph-name="Aacute" unicode="&#xc1;" horiz-adv-x="577" 
d="M466 0l-51 158h-258l-51 -158h-85l226 680h82l227 -680h-90zM220 354l-38 -117h207l-38 117l-65 210zM324 764h-71l90 166l78 -36z" />
    <glyph glyph-name="Acircumflex" unicode="&#xc2;" horiz-adv-x="577" 
d="M466 0l-51 158h-258l-51 -158h-85l226 680h82l227 -680h-90zM220 354l-38 -117h207l-38 117l-65 210zM353 764l-67 95l-67 -95h-65l93 161h82l93 -161h-69z" />
    <glyph glyph-name="Atilde" unicode="&#xc3;" horiz-adv-x="577" 
d="M466 0l-51 158h-258l-51 -158h-85l226 680h82l227 -680h-90zM220 354l-38 -117h207l-38 117l-65 210zM348 773q-25 0 -42.5 12.5t-29.5 28.5t-23 28.5t-24 12.5q-10 0 -17 -14t-7 -56h-63q1 76 24.5 107t60.5 31q26 0 43 -12.5t29 -29t23 -29t24 -12.5q11 0 17.5 14
t7.5 56h63q-1 -76 -25 -106.5t-61 -30.5z" />
    <glyph glyph-name="Adieresis" unicode="&#xc4;" horiz-adv-x="577" 
d="M466 0l-51 158h-258l-51 -158h-85l226 680h82l227 -680h-90zM220 354l-38 -117h207l-38 117l-65 210zM235 804h-86v86h86v-86zM426 804h-86v86h86v-86z" />
    <glyph glyph-name="Aring" unicode="&#xc5;" horiz-adv-x="577" 
d="M157 158l-51 -158h-85l212 637q-58 27 -58 97v11q0 48 31 78t83 30t83 -30t31 -78v-11q0 -34 -15.5 -59.5t-43.5 -38.5l212 -636h-90l-51 158h-258zM343 745q0 24 -15 38.5t-39 14.5q-25 0 -40 -14.5t-15 -38.5v-11q0 -25 15 -39.5t40 -14.5q24 0 39 14.5t15 39.5v11z
M220 354l-38 -117h207l-38 117l-65 210z" />
    <glyph glyph-name="AE" unicode="&#xc6;" horiz-adv-x="834" 
d="M3 0l365 680h411v-82h-283v-213h253v-82h-253v-222h293v-81h-380v158h-228l-84 -158h-94zM222 237h187v353z" />
    <glyph glyph-name="Ccedilla" unicode="&#xc7;" horiz-adv-x="529" 
d="M412 -132q0 -43 -31 -67t-82 -24q-21 0 -40.5 4t-38.5 11l11 56q17 -6 35 -9t32 -3q27 0 37 9t10 22q0 12 -10 21t-38 9q-6 0 -11.5 -0.5t-11.5 -1.5l-24 38l11 62q-91 16 -138.5 87t-47.5 183v150q0 127 61 201t179 74q41 0 85.5 -10t90.5 -32l-28 -75q-81 36 -145 36
q-78 0 -115.5 -50t-37.5 -144v-150q0 -94 37.5 -144.5t115.5 -50.5q34 0 67 8t79 28l29 -74q-47 -22 -89.5 -31.5t-83.5 -10.5l-7 -40q48 0 73.5 -22t25.5 -60z" />
    <glyph glyph-name="Egrave" unicode="&#xc8;" horiz-adv-x="531" 
d="M486 81v-81h-380v680h370v-82h-283v-213h253v-82h-253v-222h293zM254 764l-98 130l79 36l90 -166h-71z" />
    <glyph glyph-name="Eacute" unicode="&#xc9;" horiz-adv-x="531" 
d="M486 81v-81h-380v680h370v-82h-283v-213h253v-82h-253v-222h293zM326 764h-71l90 166l78 -36z" />
    <glyph glyph-name="Ecircumflex" unicode="&#xca;" horiz-adv-x="531" 
d="M486 81v-81h-380v680h370v-82h-283v-213h253v-82h-253v-222h293zM355 764l-67 95l-67 -95h-65l93 161h82l93 -161h-69z" />
    <glyph glyph-name="Edieresis" unicode="&#xcb;" horiz-adv-x="531" 
d="M486 81v-81h-380v680h370v-82h-283v-213h253v-82h-253v-222h293zM237 804h-86v86h86v-86zM428 804h-86v86h86v-86z" />
    <glyph glyph-name="Igrave" unicode="&#xcc;" horiz-adv-x="300" 
d="M193 0h-87v680h87v-680zM115 764l-98 130l79 36l90 -166h-71z" />
    <glyph glyph-name="Iacute" unicode="&#xcd;" horiz-adv-x="300" 
d="M193 0h-87v680h87v-680zM187 764h-71l90 166l78 -36z" />
    <glyph glyph-name="Icircumflex" unicode="&#xce;" horiz-adv-x="300" 
d="M193 0h-87v680h87v-680zM215 764l-67 95l-67 -95h-65l93 161h82l93 -161h-69z" />
    <glyph glyph-name="Idieresis" unicode="&#xcf;" horiz-adv-x="300" 
d="M193 0h-87v680h87v-680zM97 804h-86v86h86v-86zM288 804h-86v86h86v-86z" />
    <glyph glyph-name="Eth" unicode="&#xd0;" horiz-adv-x="647" 
d="M29 384h87v296h211q117 0 179.5 -70.5t62.5 -194.5v-149q0 -125 -62.5 -195.5t-179.5 -70.5h-211v305h-87v79zM340 305h-137v-224h122q154 0 154 185v149q0 183 -154 183h-122v-214h137v-79z" />
    <glyph glyph-name="Ntilde" unicode="&#xd1;" horiz-adv-x="690" 
d="M106 0v680h91q91 -130 167.5 -261.5t143.5 -274.5l-10 260v276h85v-680h-91q-70 146 -144.5 284.5t-162.5 270.5l6 -277v-278h-85zM405 773q-25 0 -42.5 12.5t-29.5 28.5t-23 28.5t-24 12.5q-10 0 -17 -14t-7 -56h-63q1 76 24.5 107t60.5 31q26 0 43 -12.5t29 -29t23 -29
t24 -12.5q11 0 17.5 14t7.5 56h63q-1 -76 -25 -106.5t-61 -30.5z" />
    <glyph glyph-name="Ograve" unicode="&#xd2;" horiz-adv-x="647" 
d="M569 415v-149q0 -127 -63.5 -201.5t-182.5 -74.5t-182.5 74.5t-63.5 201.5v149q0 126 63.5 200.5t182.5 74.5t182.5 -74.5t63.5 -200.5zM479 415q0 93 -39.5 143.5t-116.5 50.5q-76 0 -116 -50.5t-40 -143.5v-149q0 -94 40 -145t116 -51q77 0 116.5 51t39.5 145v149z
M287 764l-98 130l79 36l90 -166h-71z" />
    <glyph glyph-name="Oacute" unicode="&#xd3;" horiz-adv-x="647" 
d="M569 415v-149q0 -127 -63.5 -201.5t-182.5 -74.5t-182.5 74.5t-63.5 201.5v149q0 126 63.5 200.5t182.5 74.5t182.5 -74.5t63.5 -200.5zM479 415q0 93 -39.5 143.5t-116.5 50.5q-76 0 -116 -50.5t-40 -143.5v-149q0 -94 40 -145t116 -51q77 0 116.5 51t39.5 145v149z
M359 764h-71l90 166l78 -36z" />
    <glyph glyph-name="Ocircumflex" unicode="&#xd4;" horiz-adv-x="647" 
d="M569 415v-149q0 -127 -63.5 -201.5t-182.5 -74.5t-182.5 74.5t-63.5 201.5v149q0 126 63.5 200.5t182.5 74.5t182.5 -74.5t63.5 -200.5zM479 415q0 93 -39.5 143.5t-116.5 50.5q-76 0 -116 -50.5t-40 -143.5v-149q0 -94 40 -145t116 -51q77 0 116.5 51t39.5 145v149z
M387 764l-67 95l-67 -95h-65l93 161h82l93 -161h-69z" />
    <glyph glyph-name="Otilde" unicode="&#xd5;" horiz-adv-x="647" 
d="M569 415v-149q0 -127 -63.5 -201.5t-182.5 -74.5t-182.5 74.5t-63.5 201.5v149q0 126 63.5 200.5t182.5 74.5t182.5 -74.5t63.5 -200.5zM479 415q0 93 -39.5 143.5t-116.5 50.5q-76 0 -116 -50.5t-40 -143.5v-149q0 -94 40 -145t116 -51q77 0 116.5 51t39.5 145v149z
M383 773q-25 0 -42.5 12.5t-29.5 28.5t-23 28.5t-24 12.5q-10 0 -17 -14t-7 -56h-63q1 76 24.5 107t60.5 31q26 0 43 -12.5t29 -29t23 -29t24 -12.5q11 0 17.5 14t7.5 56h63q-1 -76 -25 -106.5t-61 -30.5z" />
    <glyph glyph-name="Odieresis" unicode="&#xd6;" horiz-adv-x="647" 
d="M569 415v-149q0 -127 -63.5 -201.5t-182.5 -74.5t-182.5 74.5t-63.5 201.5v149q0 126 63.5 200.5t182.5 74.5t182.5 -74.5t63.5 -200.5zM479 415q0 93 -39.5 143.5t-116.5 50.5q-76 0 -116 -50.5t-40 -143.5v-149q0 -94 40 -145t116 -51q77 0 116.5 51t39.5 145v149z
M270 804h-86v86h86v-86zM461 804h-86v86h86v-86z" />
    <glyph glyph-name="multiply" unicode="&#xd7;" 
d="M493 153l-51 -50l-148 149l-149 -149l-51 50l149 150l-149 149l51 51l149 -149l148 149l51 -51l-149 -149z" />
    <glyph glyph-name="Oslash" unicode="&#xd8;" horiz-adv-x="647" 
d="M323 -10q-41 0 -75.5 9.5t-62.5 26.5l-31 -56h-77l57 102q-57 72 -57 194v149q0 126 63.5 200.5t182.5 74.5q41 0 75.5 -9.5t62.5 -26.5l31 56h77l-57 -102q57 -74 57 -193v-149q0 -127 -63.5 -201.5t-182.5 -74.5zM166 266q0 -62 18 -106l235 420q-37 30 -96 30
q-77 0 -117 -50.5t-40 -144.5v-149zM480 415q0 60 -17 105l-236 -420q37 -31 96 -31q77 0 117 51.5t40 145.5v149z" />
    <glyph glyph-name="Ugrave" unicode="&#xd9;" horiz-adv-x="648" 
d="M92 680h90v-436q0 -82 34.5 -128t107.5 -46q74 0 108 46t34 128v436h90v-436q0 -119 -58 -186.5t-174 -67.5q-117 0 -174.5 67.5t-57.5 186.5v436zM288 764l-98 130l79 36l90 -166h-71z" />
    <glyph glyph-name="Uacute" unicode="&#xda;" horiz-adv-x="648" 
d="M92 680h90v-436q0 -82 34.5 -128t107.5 -46q74 0 108 46t34 128v436h90v-436q0 -119 -58 -186.5t-174 -67.5q-117 0 -174.5 67.5t-57.5 186.5v436zM360 764h-71l90 166l78 -36z" />
    <glyph glyph-name="Ucircumflex" unicode="&#xdb;" horiz-adv-x="648" 
d="M92 680h90v-436q0 -82 34.5 -128t107.5 -46q74 0 108 46t34 128v436h90v-436q0 -119 -58 -186.5t-174 -67.5q-117 0 -174.5 67.5t-57.5 186.5v436zM388 764l-67 95l-67 -95h-65l93 161h82l93 -161h-69z" />
    <glyph glyph-name="Udieresis" unicode="&#xdc;" horiz-adv-x="648" 
d="M92 680h90v-436q0 -82 34.5 -128t107.5 -46q74 0 108 46t34 128v436h90v-436q0 -119 -58 -186.5t-174 -67.5q-117 0 -174.5 67.5t-57.5 186.5v436zM270 804h-86v86h86v-86zM461 804h-86v86h86v-86z" />
    <glyph glyph-name="Yacute" unicode="&#xdd;" horiz-adv-x="524" 
d="M514 680l-208 -408v-272h-87v272l-209 408h94l163 -322l157 322h90zM298 764h-71l90 166l78 -36z" />
    <glyph glyph-name="Thorn" unicode="&#xde;" horiz-adv-x="564" 
d="M318 128h-125v-128h-87v680h87v-120h125q98 0 149.5 -51.5t51.5 -137.5v-53q0 -86 -51.5 -138t-149.5 -52zM318 478h-125v-269h125q54 0 82.5 29t28.5 80v53q0 50 -28.5 78.5t-82.5 28.5z" />
    <glyph glyph-name="germandbls" unicode="&#xdf;" horiz-adv-x="608" 
d="M578 138q0 -61 -39 -104.5t-124 -43.5q-32 0 -69.5 8t-77.5 25l22 71q36 -17 66.5 -24.5t57.5 -7.5q41 0 62.5 18.5t21.5 51.5q0 24 -11.5 44.5t-42.5 42.5l-50 35q-40 28 -58.5 58t-18.5 69q0 32 10 59t23.5 52.5t23.5 51t10 52.5q0 39 -28 59t-71 20q-49 0 -74 -25
t-25 -81v-569h-82v423h-86v72h86v74q0 48 17 89.5t56.5 66.5t106.5 25q49 0 90 -15.5t66 -48.5t25 -86q0 -35 -10 -62.5t-23.5 -51.5t-23.5 -46.5t-10 -47.5q0 -19 9 -36t37 -36l50 -34q47 -32 65.5 -69.5t18.5 -78.5z" />
    <glyph glyph-name="agrave" unicode="&#xe0;" horiz-adv-x="493" 
d="M450 -5q-46 0 -73.5 21t-38.5 52q-49 -43 -89 -60.5t-80 -17.5q-65 0 -96 42t-31 103q0 41 15 73t51 50.5t97 18.5q27 0 59 -3.5t65 -8.5v67q0 56 -24.5 76.5t-71.5 20.5q-64 0 -143 -35l-26 68q46 21 88 32t85 11q70 0 107 -23t51 -61t14 -83v-214q0 -23 9 -38.5
t36 -15.5h11v-75h-15zM123 136q0 -34 16 -55t46 -21q26 0 60 15.5t84 62.5v63q-68 11 -120 11q-46 0 -66 -19t-20 -57zM195 579l-98 130l79 36l90 -166h-71z" />
    <glyph glyph-name="aacute" unicode="&#xe1;" horiz-adv-x="493" 
d="M450 -5q-46 0 -73.5 21t-38.5 52q-49 -43 -89 -60.5t-80 -17.5q-65 0 -96 42t-31 103q0 41 15 73t51 50.5t97 18.5q27 0 59 -3.5t65 -8.5v67q0 56 -24.5 76.5t-71.5 20.5q-64 0 -143 -35l-26 68q46 21 88 32t85 11q70 0 107 -23t51 -61t14 -83v-214q0 -23 9 -38.5
t36 -15.5h11v-75h-15zM123 136q0 -34 16 -55t46 -21q26 0 60 15.5t84 62.5v63q-68 11 -120 11q-46 0 -66 -19t-20 -57zM267 579h-71l90 166l78 -36z" />
    <glyph glyph-name="acircumflex" unicode="&#xe2;" horiz-adv-x="493" 
d="M450 -5q-46 0 -73.5 21t-38.5 52q-49 -43 -89 -60.5t-80 -17.5q-65 0 -96 42t-31 103q0 41 15 73t51 50.5t97 18.5q27 0 59 -3.5t65 -8.5v67q0 56 -24.5 76.5t-71.5 20.5q-64 0 -143 -35l-26 68q46 21 88 32t85 11q70 0 107 -23t51 -61t14 -83v-214q0 -23 9 -38.5
t36 -15.5h11v-75h-15zM123 136q0 -34 16 -55t46 -21q26 0 60 15.5t84 62.5v63q-68 11 -120 11q-46 0 -66 -19t-20 -57zM295 579l-67 95l-67 -95h-65l93 161h82l93 -161h-69z" />
    <glyph glyph-name="atilde" unicode="&#xe3;" horiz-adv-x="493" 
d="M450 -5q-46 0 -73.5 21t-38.5 52q-49 -43 -89 -60.5t-80 -17.5q-65 0 -96 42t-31 103q0 41 15 73t51 50.5t97 18.5q27 0 59 -3.5t65 -8.5v67q0 56 -24.5 76.5t-71.5 20.5q-64 0 -143 -35l-26 68q46 21 88 32t85 11q70 0 107 -23t51 -61t14 -83v-214q0 -23 9 -38.5
t36 -15.5h11v-75h-15zM123 136q0 -34 16 -55t46 -21q26 0 60 15.5t84 62.5v63q-68 11 -120 11q-46 0 -66 -19t-20 -57zM291 588q-25 0 -42.5 12.5t-29.5 28.5t-23 28.5t-24 12.5q-10 0 -17 -14t-7 -56h-63q1 76 24.5 107t60.5 31q26 0 43 -12.5t29 -29t23 -29t24 -12.5
q11 0 17.5 14t7.5 56h63q-1 -76 -25 -106.5t-61 -30.5z" />
    <glyph glyph-name="adieresis" unicode="&#xe4;" horiz-adv-x="493" 
d="M450 -5q-46 0 -73.5 21t-38.5 52q-49 -43 -89 -60.5t-80 -17.5q-65 0 -96 42t-31 103q0 41 15 73t51 50.5t97 18.5q27 0 59 -3.5t65 -8.5v67q0 56 -24.5 76.5t-71.5 20.5q-64 0 -143 -35l-26 68q46 21 88 32t85 11q70 0 107 -23t51 -61t14 -83v-214q0 -23 9 -38.5
t36 -15.5h11v-75h-15zM123 136q0 -34 16 -55t46 -21q26 0 60 15.5t84 62.5v63q-68 11 -120 11q-46 0 -66 -19t-20 -57zM177 619h-86v86h86v-86zM368 619h-86v86h86v-86z" />
    <glyph glyph-name="aring" unicode="&#xe5;" horiz-adv-x="493" 
d="M450 -5q-46 0 -73.5 21t-38.5 52q-49 -43 -89 -60.5t-80 -17.5q-65 0 -96 42t-31 103q0 41 15 73t51 50.5t97 18.5q27 0 59 -3.5t65 -8.5v67q0 56 -24.5 76.5t-71.5 20.5q-64 0 -143 -35l-26 68q46 21 88 32t85 11q70 0 107 -23t51 -61t14 -83v-214q0 -23 9 -38.5
t36 -15.5h11v-75h-15zM123 136q0 -34 16 -55t46 -21q26 0 60 15.5t84 62.5v63q-68 11 -120 11q-46 0 -66 -19t-20 -57zM345 683v-11q0 -49 -31 -79t-83 -30t-83 30t-31 79v11q0 48 31 78t83 30t83 -30t31 -78zM285 683q0 24 -15 38.5t-39 14.5q-25 0 -40 -14.5t-15 -38.5
v-11q0 -25 15 -39.5t40 -14.5q24 0 39 14.5t15 39.5v11z" />
    <glyph glyph-name="ae" unicode="&#xe6;" horiz-adv-x="771" 
d="M715 29q-46 -21 -91 -30t-83 -9q-65 0 -110 23.5t-70 66.5q-56 -51 -101.5 -70.5t-89.5 -19.5q-66 0 -97 42t-31 103q0 41 15 73t51 50.5t97 18.5q27 0 59 -3.5t65 -8.5v67q0 56 -24.5 76.5t-71.5 20.5q-64 0 -143 -35l-26 68q46 21 88 32t85 11q62 0 96 -20t50 -53
q23 35 60.5 54t87.5 19q51 0 93.5 -20.5t68 -62t25.5 -106.5q0 -43 -13 -94h-295v-4q0 -76 32 -115t102 -39q32 0 70 8t76 25zM531 433q-58 0 -88.5 -38t-32.5 -106h224q3 20 3 35q0 56 -31.5 82.5t-74.5 26.5zM124 136q0 -34 15.5 -55t45.5 -21q26 0 63 16t89 67
q-3 14 -5 28t-3 29q-32 6 -63.5 9t-56.5 3q-45 0 -65 -19t-20 -57z" />
    <glyph glyph-name="ccedilla" unicode="&#xe7;" horiz-adv-x="449" 
d="M359 -132q0 -43 -31 -67t-82 -24q-21 0 -40.5 4t-38.5 11l11 56q17 -6 35 -9t32 -3q27 0 37 9t10 22q0 12 -10 21t-38 9q-6 0 -11.5 -0.5t-11.5 -1.5l-24 38l11 62q-72 15 -109 73.5t-37 149.5v59q0 106 50 167t146 61q36 0 74.5 -9.5t77.5 -26.5l-25 -70
q-33 14 -63.5 22t-58.5 8q-61 0 -89 -38.5t-28 -113.5v-59q0 -76 28 -114.5t89 -38.5q60 0 129 31l25 -69q-37 -17 -75 -26t-75 -11l-7 -40q48 0 73.5 -22t25.5 -60z" />
    <glyph glyph-name="egrave" unicode="&#xe8;" horiz-adv-x="504" 
d="M447 29q-45 -22 -90 -30.5t-83 -8.5q-107 0 -159.5 61t-52.5 167v60q0 103 52.5 165t148.5 62q51 0 93.5 -20.5t68 -62t25.5 -106.5q0 -42 -12 -96h-295v-2q0 -76 31.5 -115t101.5 -39q32 0 70.5 8t75.5 25zM263 433q-58 0 -87.5 -37.5t-32.5 -105.5h224q3 18 3 34
q0 56 -31.5 82.5t-75.5 26.5zM227 579l-98 130l79 36l90 -166h-71z" />
    <glyph glyph-name="eacute" unicode="&#xe9;" horiz-adv-x="504" 
d="M447 29q-45 -22 -90 -30.5t-83 -8.5q-107 0 -159.5 61t-52.5 167v60q0 103 52.5 165t148.5 62q51 0 93.5 -20.5t68 -62t25.5 -106.5q0 -42 -12 -96h-295v-2q0 -76 31.5 -115t101.5 -39q32 0 70.5 8t75.5 25zM263 433q-58 0 -87.5 -37.5t-32.5 -105.5h224q3 18 3 34
q0 56 -31.5 82.5t-75.5 26.5zM299 579h-71l90 166l78 -36z" />
    <glyph glyph-name="ecircumflex" unicode="&#xea;" horiz-adv-x="504" 
d="M447 29q-45 -22 -90 -30.5t-83 -8.5q-107 0 -159.5 61t-52.5 167v60q0 103 52.5 165t148.5 62q51 0 93.5 -20.5t68 -62t25.5 -106.5q0 -42 -12 -96h-295v-2q0 -76 31.5 -115t101.5 -39q32 0 70.5 8t75.5 25zM263 433q-58 0 -87.5 -37.5t-32.5 -105.5h224q3 18 3 34
q0 56 -31.5 82.5t-75.5 26.5zM327 579l-67 95l-67 -95h-65l93 161h82l93 -161h-69z" />
    <glyph glyph-name="edieresis" unicode="&#xeb;" horiz-adv-x="504" 
d="M447 29q-45 -22 -90 -30.5t-83 -8.5q-107 0 -159.5 61t-52.5 167v60q0 103 52.5 165t148.5 62q51 0 93.5 -20.5t68 -62t25.5 -106.5q0 -42 -12 -96h-295v-2q0 -76 31.5 -115t101.5 -39q32 0 70.5 8t75.5 25zM263 433q-58 0 -87.5 -37.5t-32.5 -105.5h224q3 18 3 34
q0 56 -31.5 82.5t-75.5 26.5zM210 619h-86v86h86v-86zM401 619h-86v86h86v-86z" />
    <glyph glyph-name="igrave" unicode="&#xec;" horiz-adv-x="259" 
d="M170 0h-82v495h82v-495zM94 579l-98 130l79 36l90 -166h-71z" />
    <glyph glyph-name="iacute" unicode="&#xed;" horiz-adv-x="259" 
d="M170 0h-82v495h82v-495zM166 579h-71l90 166l78 -36z" />
    <glyph glyph-name="icircumflex" unicode="&#xee;" horiz-adv-x="259" 
d="M170 0h-82v495h82v-495zM195 579l-67 95l-67 -95h-65l93 161h82l93 -161h-69z" />
    <glyph glyph-name="idieresis" unicode="&#xef;" horiz-adv-x="259" 
d="M170 0h-82v495h82v-495zM77 619h-86v86h86v-86zM268 619h-86v86h86v-86z" />
    <glyph glyph-name="eth" unicode="&#xf0;" horiz-adv-x="538" 
d="M480 254q0 -132 -57 -198t-159 -66q-100 0 -154.5 53.5t-54.5 152.5v36q0 96 51.5 153t138.5 57q39 0 72.5 -12t66.5 -37q-12 47 -35.5 91.5t-60.5 84.5l-129 -87v77l82 55q-22 19 -47.5 37t-54.5 35l33 64q77 -46 131 -93l138 93v-77l-91 -62q68 -73 99 -153.5
t31 -163.5v-40zM140 196q0 -65 32 -98.5t92 -33.5q62 0 96.5 45.5t34.5 144.5v53q-40 33 -72 46t-64 13q-55 0 -87 -35t-32 -99v-36z" />
    <glyph glyph-name="ntilde" unicode="&#xf1;" horiz-adv-x="571" 
d="M326 428q-28 0 -65.5 -14t-90.5 -57v-357h-82v495h78v-69q53 45 96.5 62t83.5 17q69 0 105.5 -43.5t36.5 -123.5v-338h-82v326q0 102 -80 102zM350 588q-25 0 -42.5 12.5t-29.5 28.5t-23 28.5t-24 12.5q-10 0 -17 -14t-7 -56h-63q1 76 24.5 107t60.5 31q26 0 43 -12.5
t29 -29t23 -29t24 -12.5q11 0 17.5 14t7.5 56h63q-1 -76 -25 -106.5t-61 -30.5z" />
    <glyph glyph-name="ograve" unicode="&#xf2;" horiz-adv-x="541" 
d="M480 278v-60q0 -106 -54.5 -167t-155.5 -61q-100 0 -155 61t-55 167v60q0 104 54.5 165.5t155.5 61.5t155.5 -61.5t54.5 -165.5zM395 278q0 71 -32 111.5t-93 40.5q-60 0 -92.5 -40.5t-32.5 -111.5v-60q0 -74 32.5 -114t92.5 -40q61 0 93 40t32 114v60zM234 579l-98 130
l79 36l90 -166h-71z" />
    <glyph glyph-name="oacute" unicode="&#xf3;" horiz-adv-x="541" 
d="M480 278v-60q0 -106 -54.5 -167t-155.5 -61q-100 0 -155 61t-55 167v60q0 104 54.5 165.5t155.5 61.5t155.5 -61.5t54.5 -165.5zM395 278q0 71 -32 111.5t-93 40.5q-60 0 -92.5 -40.5t-32.5 -111.5v-60q0 -74 32.5 -114t92.5 -40q61 0 93 40t32 114v60zM306 579h-71
l90 166l78 -36z" />
    <glyph glyph-name="ocircumflex" unicode="&#xf4;" horiz-adv-x="541" 
d="M480 278v-60q0 -106 -54.5 -167t-155.5 -61q-100 0 -155 61t-55 167v60q0 104 54.5 165.5t155.5 61.5t155.5 -61.5t54.5 -165.5zM395 278q0 71 -32 111.5t-93 40.5q-60 0 -92.5 -40.5t-32.5 -111.5v-60q0 -74 32.5 -114t92.5 -40q61 0 93 40t32 114v60zM335 579l-67 95
l-67 -95h-65l93 161h82l93 -161h-69z" />
    <glyph glyph-name="otilde" unicode="&#xf5;" horiz-adv-x="541" 
d="M480 278v-60q0 -106 -54.5 -167t-155.5 -61q-100 0 -155 61t-55 167v60q0 104 54.5 165.5t155.5 61.5t155.5 -61.5t54.5 -165.5zM395 278q0 71 -32 111.5t-93 40.5q-60 0 -92.5 -40.5t-32.5 -111.5v-60q0 -74 32.5 -114t92.5 -40q61 0 93 40t32 114v60zM330 588
q-25 0 -42.5 12.5t-29.5 28.5t-23 28.5t-24 12.5q-10 0 -17 -14t-7 -56h-63q1 76 24.5 107t60.5 31q26 0 43 -12.5t29 -29t23 -29t24 -12.5q11 0 17.5 14t7.5 56h63q-1 -76 -25 -106.5t-61 -30.5z" />
    <glyph glyph-name="odieresis" unicode="&#xf6;" horiz-adv-x="541" 
d="M480 278v-60q0 -106 -54.5 -167t-155.5 -61q-100 0 -155 61t-55 167v60q0 104 54.5 165.5t155.5 61.5t155.5 -61.5t54.5 -165.5zM395 278q0 71 -32 111.5t-93 40.5q-60 0 -92.5 -40.5t-32.5 -111.5v-60q0 -74 32.5 -114t92.5 -40q61 0 93 40t32 114v60zM217 619h-86v86
h86v-86zM408 619h-86v86h86v-86z" />
    <glyph glyph-name="divide" unicode="&#xf7;" 
d="M340 456h-92v91h92v-91zM87 266v72h414v-72h-414zM340 53h-92v92h92v-92z" />
    <glyph glyph-name="oslash" unicode="&#xf8;" horiz-adv-x="541" 
d="M270 -10q-63 0 -108 24l-28 -44h-74l52 84q-52 60 -52 164v60q0 104 54.5 165.5t155.5 61.5q62 0 109 -25l28 45h73l-52 -84q52 -60 52 -163v-60q0 -106 -54.5 -167t-155.5 -61zM143 218q0 -26 4.5 -48.5t11.5 -40.5l179 286q-29 17 -68 17q-61 0 -94 -40.5t-33 -113.5
v-60zM397 278q0 51 -17 87l-178 -286q29 -17 68 -17q62 0 94.5 40t32.5 116v60z" />
    <glyph glyph-name="ugrave" unicode="&#xf9;" horiz-adv-x="559" 
d="M393 0v70q-52 -45 -93 -62.5t-82 -17.5q-66 0 -101 43.5t-35 122.5v339h82v-327q0 -52 18.5 -76.5t55.5 -24.5q28 0 63 14t87 56v358h82v-495h-77zM240 579l-98 130l79 36l90 -166h-71z" />
    <glyph glyph-name="uacute" unicode="&#xfa;" horiz-adv-x="559" 
d="M393 0v70q-52 -45 -93 -62.5t-82 -17.5q-66 0 -101 43.5t-35 122.5v339h82v-327q0 -52 18.5 -76.5t55.5 -24.5q28 0 63 14t87 56v358h82v-495h-77zM312 579h-71l90 166l78 -36z" />
    <glyph glyph-name="ucircumflex" unicode="&#xfb;" horiz-adv-x="559" 
d="M393 0v70q-52 -45 -93 -62.5t-82 -17.5q-66 0 -101 43.5t-35 122.5v339h82v-327q0 -52 18.5 -76.5t55.5 -24.5q28 0 63 14t87 56v358h82v-495h-77zM341 579l-67 95l-67 -95h-65l93 161h82l93 -161h-69z" />
    <glyph glyph-name="udieresis" unicode="&#xfc;" horiz-adv-x="559" 
d="M393 0v70q-52 -45 -93 -62.5t-82 -17.5q-66 0 -101 43.5t-35 122.5v339h82v-327q0 -52 18.5 -76.5t55.5 -24.5q28 0 63 14t87 56v358h82v-495h-77zM223 619h-86v86h86v-86zM414 619h-86v86h86v-86z" />
    <glyph glyph-name="yacute" unicode="&#xfd;" horiz-adv-x="472" 
d="M257 -50q-32 -90 -78.5 -131.5t-129.5 -41.5v81q34 1 58.5 9t44 32.5t37.5 72.5l10 25l-178 498h84l83 -241l51 -154l49 154l81 241h81zM273 579h-71l90 166l78 -36z" />
    <glyph glyph-name="thorn" unicode="&#xfe;" horiz-adv-x="554" 
d="M286 -10q-56 0 -116 23v-226h-82v953h82v-311q44 42 81.5 59t76.5 17q78 0 120 -60t42 -169v-58q0 -104 -52 -166t-152 -62zM308 428q-29 0 -60 -15t-78 -61v-264q29 -13 56 -18.5t53 -5.5q68 0 97 41.5t29 112.5v58q0 78 -24 115t-73 37z" />
    <glyph glyph-name="ydieresis" unicode="&#xff;" horiz-adv-x="472" 
d="M257 -50q-32 -90 -78.5 -131.5t-129.5 -41.5v81q34 1 58.5 9t44 32.5t37.5 72.5l10 25l-178 498h84l83 -241l51 -154l49 154l81 241h81zM183 619h-86v86h86v-86zM374 619h-86v86h86v-86z" />
    <glyph glyph-name="Amacron" unicode="&#x100;" horiz-adv-x="577" 
d="M466 0l-51 158h-258l-51 -158h-85l226 680h82l227 -680h-90zM220 354l-38 -117h207l-38 117l-65 210zM431 857v-63h-286v63h286z" />
    <glyph glyph-name="amacron" unicode="&#x101;" horiz-adv-x="493" 
d="M450 -5q-46 0 -73.5 21t-38.5 52q-49 -43 -89 -60.5t-80 -17.5q-65 0 -96 42t-31 103q0 41 15 73t51 50.5t97 18.5q27 0 59 -3.5t65 -8.5v67q0 56 -24.5 76.5t-71.5 20.5q-64 0 -143 -35l-26 68q46 21 88 32t85 11q70 0 107 -23t51 -61t14 -83v-214q0 -23 9 -38.5
t36 -15.5h11v-75h-15zM123 136q0 -34 16 -55t46 -21q26 0 60 15.5t84 62.5v63q-68 11 -120 11q-46 0 -66 -19t-20 -57zM373 672v-63h-286v63h286z" />
    <glyph glyph-name="Abreve" unicode="&#x102;" horiz-adv-x="577" 
d="M466 0l-51 158h-258l-51 -158h-85l226 680h82l227 -680h-90zM220 354l-38 -117h207l-38 117l-65 210zM288 833q29 0 45.5 18.5t19.5 64.5h66q-5 -78 -41 -112t-90 -34q-55 0 -90.5 34t-40.5 112h65q3 -46 20 -64.5t46 -18.5z" />
    <glyph glyph-name="abreve" unicode="&#x103;" horiz-adv-x="493" 
d="M450 -5q-46 0 -73.5 21t-38.5 52q-49 -43 -89 -60.5t-80 -17.5q-65 0 -96 42t-31 103q0 41 15 73t51 50.5t97 18.5q27 0 59 -3.5t65 -8.5v67q0 56 -24.5 76.5t-71.5 20.5q-64 0 -143 -35l-26 68q46 21 88 32t85 11q70 0 107 -23t51 -61t14 -83v-214q0 -23 9 -38.5
t36 -15.5h11v-75h-15zM123 136q0 -34 16 -55t46 -21q26 0 60 15.5t84 62.5v63q-68 11 -120 11q-46 0 -66 -19t-20 -57zM231 648q29 0 45.5 18.5t19.5 64.5h66q-5 -78 -41 -112t-90 -34q-55 0 -90.5 34t-40.5 112h65q3 -46 20 -64.5t46 -18.5z" />
    <glyph glyph-name="Aogonek" unicode="&#x104;" horiz-adv-x="577" 
d="M556 -206q-42 -17 -79 -17q-49 0 -75 24t-26 63q0 31 19.5 63t70.5 74l-51 157h-258l-51 -158h-85l226 680h82l227 -680q-42 -33 -65 -55t-31.5 -37.5t-8.5 -30.5q0 -32 37 -32q25 0 53 12zM220 354l-38 -117h207l-38 117l-65 210z" />
    <glyph glyph-name="aogonek" unicode="&#x105;" horiz-adv-x="493" 
d="M465 -206q-20 -8 -39 -12.5t-39 -4.5q-49 0 -75.5 24t-26.5 63q0 32 22 66.5t82 77.5q-37 19 -51 60q-49 -43 -89 -60.5t-80 -17.5q-65 0 -96 42t-31 103q0 41 15 73t51 50.5t97 18.5q27 0 59 -3.5t65 -8.5v67q0 56 -24.5 76.5t-71.5 20.5q-64 0 -143 -35l-26 68
q46 21 88 32t85 11q70 0 107 -23t51 -61t14 -83v-214q0 -23 9 -38.5t36 -15.5h11v-75q-64 -46 -84.5 -72t-20.5 -46q0 -32 37 -32q25 0 53 12zM123 136q0 -34 16 -55t46 -21q26 0 60 15.5t84 62.5v63q-68 11 -120 11q-46 0 -66 -19t-20 -57z" />
    <glyph glyph-name="Cacute" unicode="&#x106;" horiz-adv-x="529" 
d="M165 265q0 -94 37.5 -144.5t115.5 -50.5q34 0 67 8t79 28l29 -74q-49 -22 -93 -32t-85 -10q-118 0 -179 74t-61 201v150q0 127 61 201t179 74q41 0 85.5 -10t90.5 -32l-28 -75q-81 36 -145 36q-78 0 -115.5 -50t-37.5 -144v-150zM349 764h-71l90 166l78 -36z" />
    <glyph glyph-name="cacute" unicode="&#x107;" horiz-adv-x="449" 
d="M146 277v-59q0 -76 28 -114.5t89 -38.5q60 0 129 31l25 -69q-82 -37 -159 -37q-96 0 -146 61t-50 167v59q0 106 50 167t146 61q36 0 74.5 -9.5t77.5 -26.5l-25 -70q-33 14 -63.5 22t-58.5 8q-61 0 -89 -38.5t-28 -113.5zM294 579h-71l90 166l78 -36z" />
    <glyph glyph-name="Ccircumflex" unicode="&#x108;" horiz-adv-x="529" 
d="M165 265q0 -94 37.5 -144.5t115.5 -50.5q34 0 67 8t79 28l29 -74q-49 -22 -93 -32t-85 -10q-118 0 -179 74t-61 201v150q0 127 61 201t179 74q41 0 85.5 -10t90.5 -32l-28 -75q-81 36 -145 36q-78 0 -115.5 -50t-37.5 -144v-150zM377 764l-67 95l-67 -95h-65l93 161h82
l93 -161h-69z" />
    <glyph glyph-name="ccircumflex" unicode="&#x109;" horiz-adv-x="449" 
d="M146 277v-59q0 -76 28 -114.5t89 -38.5q60 0 129 31l25 -69q-82 -37 -159 -37q-96 0 -146 61t-50 167v59q0 106 50 167t146 61q36 0 74.5 -9.5t77.5 -26.5l-25 -70q-33 14 -63.5 22t-58.5 8q-61 0 -89 -38.5t-28 -113.5zM323 579l-67 95l-67 -95h-65l93 161h82l93 -161
h-69z" />
    <glyph glyph-name="Cdotaccent" unicode="&#x10a;" horiz-adv-x="529" 
d="M165 265q0 -94 37.5 -144.5t115.5 -50.5q34 0 67 8t79 28l29 -74q-49 -22 -93 -32t-85 -10q-118 0 -179 74t-61 201v150q0 127 61 201t179 74q41 0 85.5 -10t90.5 -32l-28 -75q-81 36 -145 36q-78 0 -115.5 -50t-37.5 -144v-150zM359 801h-92v92h92v-92z" />
    <glyph glyph-name="cdotaccent" unicode="&#x10b;" horiz-adv-x="449" 
d="M146 277v-59q0 -76 28 -114.5t89 -38.5q60 0 129 31l25 -69q-82 -37 -159 -37q-96 0 -146 61t-50 167v59q0 106 50 167t146 61q36 0 74.5 -9.5t77.5 -26.5l-25 -70q-33 14 -63.5 22t-58.5 8q-61 0 -89 -38.5t-28 -113.5zM304 616h-92v92h92v-92z" />
    <glyph glyph-name="Ccaron" unicode="&#x10c;" horiz-adv-x="529" 
d="M165 265q0 -94 37.5 -144.5t115.5 -50.5q34 0 67 8t79 28l29 -74q-49 -22 -93 -32t-85 -10q-118 0 -179 74t-61 201v150q0 127 61 201t179 74q41 0 85.5 -10t90.5 -32l-28 -75q-81 36 -145 36q-78 0 -115.5 -50t-37.5 -144v-150zM446 925l-93 -161h-82l-93 161h69l67 -95
l67 95h65z" />
    <glyph glyph-name="ccaron" unicode="&#x10d;" horiz-adv-x="449" 
d="M146 277v-59q0 -76 28 -114.5t89 -38.5q60 0 129 31l25 -69q-82 -37 -159 -37q-96 0 -146 61t-50 167v59q0 106 50 167t146 61q36 0 74.5 -9.5t77.5 -26.5l-25 -70q-33 14 -63.5 22t-58.5 8q-61 0 -89 -38.5t-28 -113.5zM392 740l-93 -161h-82l-93 161h69l67 -95l67 95
h65z" />
    <glyph glyph-name="Dcaron" unicode="&#x10e;" horiz-adv-x="637" 
d="M106 0v680h211q117 0 180 -70.5t63 -194.5v-149q0 -125 -63 -195.5t-180 -70.5h-211zM315 598h-122v-517h122q155 0 155 185v149q0 183 -155 183zM446 925l-93 -161h-82l-93 161h69l67 -95l67 95h65z" />
    <glyph glyph-name="dcaron" unicode="&#x10f;" horiz-adv-x="618" 
d="M389 0v69q-46 -44 -83.5 -61.5t-77.5 -17.5q-79 0 -121.5 60t-42.5 168v58q0 105 52.5 167t152.5 62q29 0 58 -6t58 -17v258h82v-740h-78zM149 218q0 -78 24.5 -114.5t73.5 -36.5q29 0 60 14.5t78 60.5v264q-29 13 -56 18.5t-53 5.5q-68 0 -97.5 -41t-29.5 -113v-58z
M605 546h-55v194h84z" />
    <glyph glyph-name="Dcroat" unicode="&#x110;" horiz-adv-x="647" 
d="M29 384h87v296h211q117 0 179.5 -70.5t62.5 -194.5v-149q0 -125 -62.5 -195.5t-179.5 -70.5h-211v305h-87v79zM340 305h-137v-224h122q154 0 154 185v149q0 183 -154 183h-122v-214h137v-79z" />
    <glyph glyph-name="dcroat" unicode="&#x111;" horiz-adv-x="556" 
d="M389 0v69q-46 -44 -83.5 -61.5t-77.5 -17.5q-79 0 -121.5 60t-42.5 168v58q0 105 52.5 167t152.5 62q29 0 58 -6t58 -17v104h-154v62h154v92h82v-92h87v-62h-87v-586h-78zM149 218q0 -78 24.5 -114.5t73.5 -36.5q29 0 60 14.5t78 60.5v264q-29 13 -56 18.5t-53 5.5
q-68 0 -97.5 -41t-29.5 -113v-58z" />
    <glyph glyph-name="Emacron" unicode="&#x112;" horiz-adv-x="531" 
d="M486 81v-81h-380v680h370v-82h-283v-213h253v-82h-253v-222h293zM433 857v-63h-286v63h286z" />
    <glyph glyph-name="emacron" unicode="&#x113;" horiz-adv-x="504" 
d="M447 29q-45 -22 -90 -30.5t-83 -8.5q-107 0 -159.5 61t-52.5 167v60q0 103 52.5 165t148.5 62q51 0 93.5 -20.5t68 -62t25.5 -106.5q0 -42 -12 -96h-295v-2q0 -76 31.5 -115t101.5 -39q32 0 70.5 8t75.5 25zM263 433q-58 0 -87.5 -37.5t-32.5 -105.5h224q3 18 3 34
q0 56 -31.5 82.5t-75.5 26.5zM406 672v-63h-286v63h286z" />
    <glyph glyph-name="Ebreve" unicode="&#x114;" horiz-adv-x="531" 
d="M486 81v-81h-380v680h370v-82h-283v-213h253v-82h-253v-222h293zM290 833q29 0 45.5 18.5t19.5 64.5h66q-5 -78 -41 -112t-90 -34q-55 0 -90.5 34t-40.5 112h65q3 -46 20 -64.5t46 -18.5z" />
    <glyph glyph-name="ebreve" unicode="&#x115;" horiz-adv-x="504" 
d="M447 29q-45 -22 -90 -30.5t-83 -8.5q-107 0 -159.5 61t-52.5 167v60q0 103 52.5 165t148.5 62q51 0 93.5 -20.5t68 -62t25.5 -106.5q0 -42 -12 -96h-295v-2q0 -76 31.5 -115t101.5 -39q32 0 70.5 8t75.5 25zM263 433q-58 0 -87.5 -37.5t-32.5 -105.5h224q3 18 3 34
q0 56 -31.5 82.5t-75.5 26.5zM263 648q29 0 45.5 18.5t19.5 64.5h66q-5 -78 -41 -112t-90 -34q-55 0 -90.5 34t-40.5 112h65q3 -46 20 -64.5t46 -18.5z" />
    <glyph glyph-name="Edotaccent" unicode="&#x116;" horiz-adv-x="531" 
d="M486 81v-81h-380v680h370v-82h-283v-213h253v-82h-253v-222h293zM336 801h-92v92h92v-92z" />
    <glyph glyph-name="edotaccent" unicode="&#x117;" horiz-adv-x="504" 
d="M447 29q-45 -22 -90 -30.5t-83 -8.5q-107 0 -159.5 61t-52.5 167v60q0 103 52.5 165t148.5 62q51 0 93.5 -20.5t68 -62t25.5 -106.5q0 -42 -12 -96h-295v-2q0 -76 31.5 -115t101.5 -39q32 0 70.5 8t75.5 25zM263 433q-58 0 -87.5 -37.5t-32.5 -105.5h224q3 18 3 34
q0 56 -31.5 82.5t-75.5 26.5zM309 616h-92v92h92v-92z" />
    <glyph glyph-name="Eogonek" unicode="&#x118;" horiz-adv-x="531" 
d="M486 -206q-42 -17 -79 -17q-48 0 -74.5 24t-26.5 63q0 31 20 62.5t72 73.5h-292v680h370v-82h-283v-213h253v-82h-253v-222h293v-81q-42 -33 -64.5 -55t-31.5 -38t-9 -30q0 -32 37 -32q25 0 53 12z" />
    <glyph glyph-name="eogonek" unicode="&#x119;" horiz-adv-x="504" 
d="M445 -206q-42 -17 -79 -17q-49 0 -75 24.5t-26 65.5q0 27 14.5 58.5t51.5 71.5q-16 -4 -32 -5.5t-30 -1.5q-103 0 -155 61t-52 167v60q0 103 52.5 165t148.5 62q51 0 93.5 -20.5t68 -62t25.5 -106.5q0 -41 -12 -94h-295v-4q0 -76 31.5 -115t101.5 -39q32 0 70 8t76 25
l25 -68q-45 -41 -68 -69t-31 -47t-8 -33q0 -35 37 -35q25 0 53 12zM263 433q-58 0 -88 -38t-32 -106h224q3 20 3 35q0 56 -31.5 82.5t-75.5 26.5z" />
    <glyph glyph-name="Ecaron" unicode="&#x11a;" horiz-adv-x="531" 
d="M486 81v-81h-380v680h370v-82h-283v-213h253v-82h-253v-222h293zM424 925l-93 -161h-82l-93 161h69l67 -95l67 95h65z" />
    <glyph glyph-name="ecaron" unicode="&#x11b;" horiz-adv-x="504" 
d="M447 29q-45 -22 -90 -30.5t-83 -8.5q-107 0 -159.5 61t-52.5 167v60q0 103 52.5 165t148.5 62q51 0 93.5 -20.5t68 -62t25.5 -106.5q0 -42 -12 -96h-295v-2q0 -76 31.5 -115t101.5 -39q32 0 70.5 8t75.5 25zM263 433q-58 0 -87.5 -37.5t-32.5 -105.5h224q3 18 3 34
q0 56 -31.5 82.5t-75.5 26.5zM396 740l-93 -161h-82l-93 161h69l67 -95l67 95h65z" />
    <glyph glyph-name="Gcircumflex" unicode="&#x11c;" horiz-adv-x="604" 
d="M536 47q-29 -19 -82.5 -38t-128.5 -19q-81 0 -136.5 34.5t-84 97t-28.5 144.5v149q0 128 64.5 201.5t187.5 73.5q45 0 94.5 -10t98.5 -33l-28 -75q-90 37 -164 37q-82 0 -122.5 -49.5t-40.5 -144.5v-149q0 -90 41 -143t124 -53q32 0 65.5 7t59.5 19v183h-127v77h207v-309
zM393 764l-67 95l-67 -95h-65l93 161h82l93 -161h-69z" />
    <glyph glyph-name="gcircumflex" unicode="&#x11d;" horiz-adv-x="520" 
d="M484 -62q0 -73 -59.5 -117t-163.5 -44q-52 0 -108.5 14t-106.5 45l28 64q50 -28 96.5 -39.5t90.5 -11.5q68 0 105 22t37 59q0 27 -18 41.5t-58 14.5h-115q-65 0 -94 31t-29 68q0 26 12 51.5t34 50.5q-35 21 -56 57.5t-21 88.5q0 57 24.5 95t65.5 57.5t92 19.5h17
q35 0 64 -10h178v-73l-108 15q21 -18 34 -44.5t13 -64.5q0 -54 -24.5 -91t-65.5 -56.5t-91 -19.5h-17q-13 0 -25 1.5t-24 3.5q-29 -32 -29 -63q0 -40 56 -40h112q72 0 113 -32t41 -93zM257 232q39 0 69 25t30 76q0 50 -30 75.5t-69 25.5h-17q-40 0 -70 -25.5t-30 -75.5
q0 -51 30 -76t70 -25h17zM312 579l-67 95l-67 -95h-65l93 161h82l93 -161h-69z" />
    <glyph glyph-name="Gbreve" unicode="&#x11e;" horiz-adv-x="604" 
d="M536 47q-29 -19 -82.5 -38t-128.5 -19q-81 0 -136.5 34.5t-84 97t-28.5 144.5v149q0 128 64.5 201.5t187.5 73.5q45 0 94.5 -10t98.5 -33l-28 -75q-90 37 -164 37q-82 0 -122.5 -49.5t-40.5 -144.5v-149q0 -90 41 -143t124 -53q32 0 65.5 7t59.5 19v183h-127v77h207v-309
zM328 833q29 0 45.5 18.5t19.5 64.5h66q-5 -78 -41 -112t-90 -34q-55 0 -90.5 34t-40.5 112h65q3 -46 20 -64.5t46 -18.5z" />
    <glyph glyph-name="gbreve" unicode="&#x11f;" horiz-adv-x="520" 
d="M484 -62q0 -73 -59.5 -117t-163.5 -44q-52 0 -108.5 14t-106.5 45l28 64q50 -28 96.5 -39.5t90.5 -11.5q68 0 105 22t37 59q0 27 -18 41.5t-58 14.5h-115q-65 0 -94 31t-29 68q0 26 12 51.5t34 50.5q-35 21 -56 57.5t-21 88.5q0 57 24.5 95t65.5 57.5t92 19.5h17
q35 0 64 -10h178v-73l-108 15q21 -18 34 -44.5t13 -64.5q0 -54 -24.5 -91t-65.5 -56.5t-91 -19.5h-17q-13 0 -25 1.5t-24 3.5q-29 -32 -29 -63q0 -40 56 -40h112q72 0 113 -32t41 -93zM257 232q39 0 69 25t30 76q0 50 -30 75.5t-69 25.5h-17q-40 0 -70 -25.5t-30 -75.5
q0 -51 30 -76t70 -25h17zM248 648q29 0 45.5 18.5t19.5 64.5h66q-5 -78 -41 -112t-90 -34q-55 0 -90.5 34t-40.5 112h65q3 -46 20 -64.5t46 -18.5z" />
    <glyph glyph-name="Gdotaccent" unicode="&#x120;" horiz-adv-x="604" 
d="M536 47q-29 -19 -82.5 -38t-128.5 -19q-81 0 -136.5 34.5t-84 97t-28.5 144.5v149q0 128 64.5 201.5t187.5 73.5q45 0 94.5 -10t98.5 -33l-28 -75q-90 37 -164 37q-82 0 -122.5 -49.5t-40.5 -144.5v-149q0 -90 41 -143t124 -53q32 0 65.5 7t59.5 19v183h-127v77h207v-309
zM374 801h-92v92h92v-92z" />
    <glyph glyph-name="gdotaccent" unicode="&#x121;" horiz-adv-x="520" 
d="M484 -62q0 -73 -59.5 -117t-163.5 -44q-52 0 -108.5 14t-106.5 45l28 64q50 -28 96.5 -39.5t90.5 -11.5q68 0 105 22t37 59q0 27 -18 41.5t-58 14.5h-115q-65 0 -94 31t-29 68q0 26 12 51.5t34 50.5q-35 21 -56 57.5t-21 88.5q0 57 24.5 95t65.5 57.5t92 19.5h17
q35 0 64 -10h178v-73l-108 15q21 -18 34 -44.5t13 -64.5q0 -54 -24.5 -91t-65.5 -56.5t-91 -19.5h-17q-13 0 -25 1.5t-24 3.5q-29 -32 -29 -63q0 -40 56 -40h112q72 0 113 -32t41 -93zM257 232q39 0 69 25t30 76q0 50 -30 75.5t-69 25.5h-17q-40 0 -70 -25.5t-30 -75.5
q0 -51 30 -76t70 -25h17zM294 616h-92v92h92v-92z" />
    <glyph glyph-name="uni0122" unicode="&#x122;" horiz-adv-x="604" 
d="M536 47q-29 -19 -82.5 -38t-128.5 -19q-81 0 -136.5 34.5t-84 97t-28.5 144.5v149q0 128 64.5 201.5t187.5 73.5q45 0 94.5 -10t98.5 -33l-28 -75q-90 37 -164 37q-82 0 -122.5 -49.5t-40.5 -144.5v-149q0 -90 41 -143t124 -53q32 0 65.5 7t59.5 19v183h-127v77h207v-309
zM302 -248l-50 14l31 157h89z" />
    <glyph glyph-name="uni0123" unicode="&#x123;" horiz-adv-x="520" 
d="M484 -62q0 -73 -59.5 -117t-163.5 -44q-52 0 -108.5 14t-106.5 45l28 64q50 -28 96.5 -39.5t90.5 -11.5q68 0 105 22t37 59q0 27 -18 41.5t-58 14.5h-115q-65 0 -94 31t-29 68q0 26 12 51.5t34 50.5q-35 21 -56 57.5t-21 88.5q0 57 24.5 95t65.5 57.5t92 19.5h17
q35 0 64 -10h178v-73l-108 15q21 -18 34 -44.5t13 -64.5q0 -54 -24.5 -91t-65.5 -56.5t-91 -19.5h-17q-13 0 -25 1.5t-24 3.5q-29 -32 -29 -63q0 -40 56 -40h112q72 0 113 -32t41 -93zM257 232q39 0 69 25t30 76q0 50 -30 75.5t-69 25.5h-17q-40 0 -70 -25.5t-30 -75.5
q0 -51 30 -76t70 -25h17zM273 750l50 -14l-31 -157h-89z" />
    <glyph glyph-name="Hcircumflex" unicode="&#x124;" horiz-adv-x="683" 
d="M490 0v303h-297v-303h-87v680h87v-295h297v295h87v-680h-87zM406 764l-67 95l-67 -95h-65l93 161h82l93 -161h-69z" />
    <glyph glyph-name="hcircumflex" unicode="&#x125;" horiz-adv-x="571" 
d="M326 428q-28 0 -65.5 -14t-90.5 -57v-357h-82v740h82v-311q52 44 94 60t82 16q69 0 105.5 -43.5t36.5 -123.5v-338h-82v326q0 102 -80 102zM296 824l-67 95l-67 -95h-65l93 161h82l93 -161h-69z" />
    <glyph glyph-name="Hbar" unicode="&#x126;" horiz-adv-x="703" 
d="M202 303v-303h-87v504h-86v67h86v109h87v-109h297v109h87v-109h87v-67h-87v-504h-87v303h-297zM202 385h297v119h-297v-119z" />
    <glyph glyph-name="hbar" unicode="&#x127;" horiz-adv-x="571" 
d="M170 357v-357h-82v588h-87v60h87v92h82v-92h155v-60h-155v-159q52 44 94 60t82 16q69 0 105.5 -43.5t36.5 -123.5v-338h-82v326q0 102 -80 102q-28 0 -65.5 -14t-90.5 -57z" />
    <glyph glyph-name="Itilde" unicode="&#x128;" horiz-adv-x="300" 
d="M193 0h-87v680h87v-680zM211 773q-25 0 -42.5 12.5t-29.5 28.5t-23 28.5t-24 12.5q-10 0 -17 -14t-7 -56h-63q1 76 24.5 107t60.5 31q26 0 43 -12.5t29 -29t23 -29t24 -12.5q11 0 17.5 14t7.5 56h63q-1 -76 -25 -106.5t-61 -30.5z" />
    <glyph glyph-name="itilde" unicode="&#x129;" horiz-adv-x="259" 
d="M170 0h-82v495h82v-495zM190 588q-25 0 -42.5 12.5t-29.5 28.5t-23 28.5t-24 12.5q-10 0 -17 -14t-7 -56h-63q1 76 24.5 107t60.5 31q26 0 43 -12.5t29 -29t23 -29t24 -12.5q11 0 17.5 14t7.5 56h63q-1 -76 -25 -106.5t-61 -30.5z" />
    <glyph glyph-name="Imacron" unicode="&#x12a;" horiz-adv-x="300" 
d="M193 0h-87v680h87v-680zM293 857v-63h-286v63h286z" />
    <glyph glyph-name="imacron" unicode="&#x12b;" horiz-adv-x="259" 
d="M170 0h-82v495h82v-495zM273 672v-63h-286v63h286z" />
    <glyph glyph-name="Ibreve" unicode="&#x12c;" horiz-adv-x="300" 
d="M193 0h-87v680h87v-680zM151 833q29 0 45.5 18.5t19.5 64.5h66q-5 -78 -41 -112t-90 -34q-55 0 -90.5 34t-40.5 112h65q3 -46 20 -64.5t46 -18.5z" />
    <glyph glyph-name="ibreve" unicode="&#x12d;" horiz-adv-x="259" 
d="M170 0h-82v495h82v-495zM130 648q29 0 45.5 18.5t19.5 64.5h66q-5 -78 -41 -112t-90 -34q-55 0 -90.5 34t-40.5 112h65q3 -46 20 -64.5t46 -18.5z" />
    <glyph glyph-name="Iogonek" unicode="&#x12e;" horiz-adv-x="300" 
d="M217 -206q-20 -8 -39 -12.5t-39 -4.5q-49 0 -75.5 24t-26.5 63q0 59 69 132v684h87v-680q-43 -42 -62 -70.5t-19 -51.5q0 -33 37 -33q25 0 53 12z" />
    <glyph glyph-name="iogonek" unicode="&#x12f;" horiz-adv-x="259" 
d="M172 619h-86v86h86v-86zM194 -206q-20 -8 -39 -12.5t-39 -4.5q-49 0 -75.5 24t-26.5 63q0 31 18 64.5t56 72.5v494h82v-495q-43 -42 -62 -70.5t-19 -51.5q0 -33 37 -33q25 0 53 12z" />
    <glyph glyph-name="Idotaccent" unicode="&#x130;" horiz-adv-x="300" 
d="M193 0h-87v680h87v-680zM196 801h-92v92h92v-92z" />
    <glyph glyph-name="dotlessi" unicode="&#x131;" horiz-adv-x="259" 
d="M170 0h-82v495h82v-495z" />
    <glyph glyph-name="IJ" unicode="&#x132;" horiz-adv-x="663" 
d="M193 0h-87v680h87v-680zM327 -7v83q81 0 118.5 33t37.5 115v456h87v-456q0 -68 -21.5 -120.5t-74 -81.5t-147.5 -29z" />
    <glyph glyph-name="ij" unicode="&#x133;" horiz-adv-x="519" 
d="M175 616h-92v92h92v-92zM170 0h-82v495h82v-495zM434 616h-92v92h92v-92zM239 -223v78q53 0 80.5 25t27.5 97v518h82v-518q0 -58 -17 -103t-58.5 -71t-114.5 -26z" />
    <glyph glyph-name="Jcircumflex" unicode="&#x134;" horiz-adv-x="363" 
d="M27 -7v83q81 0 118.5 33t37.5 115v456h87v-456q0 -68 -21.5 -120.5t-74 -81.5t-147.5 -29zM291 764l-67 95l-67 -95h-65l93 161h82l93 -161h-69z" />
    <glyph glyph-name="jcircumflex" unicode="&#x135;" horiz-adv-x="259" 
d="M-20 -223v78q53 0 80.5 25t27.5 97v518h82v-518q0 -58 -17 -103t-58.5 -71t-114.5 -26zM194 579l-67 95l-67 -95h-65l93 161h82l93 -161h-69z" />
    <glyph glyph-name="uni0136" unicode="&#x136;" horiz-adv-x="596" 
d="M477 0l-194 321q-21 -22 -43.5 -45t-46.5 -46v-230h-87v680h87v-353q94 95 157 180t107 173h94q-45 -88 -93.5 -159.5t-110.5 -142.5l236 -378h-106zM299 -248l-50 14l31 157h89z" />
    <glyph glyph-name="uni0137" unicode="&#x137;" horiz-adv-x="508" 
d="M393 0l-139 229q-19 -19 -40 -39t-44 -40v-150h-82v740h82v-498q65 63 115.5 123t92.5 130h94q-36 -60 -73.5 -110.5t-84.5 -102.5l178 -282h-99zM249 -248l-50 14l31 157h89z" />
    <glyph glyph-name="kgreenlandic" unicode="&#x138;" horiz-adv-x="508" 
d="M393 0l-139 229q-19 -19 -40 -39t-44 -40v-150h-82v495h82v-253q65 63 115.5 123t92.5 130h94q-36 -60 -73.5 -110.5t-84.5 -102.5l178 -282h-99z" />
    <glyph glyph-name="Lacute" unicode="&#x139;" horiz-adv-x="506" 
d="M478 81v-81h-372v680h87v-599h285zM191 764h-71l90 166l78 -36z" />
    <glyph glyph-name="lacute" unicode="&#x13a;" horiz-adv-x="264" 
d="M87 120v620h82v-616q0 -27 8.5 -40.5t34.5 -13.5h16v-75h-23q-66 0 -92 35t-26 90zM170 824h-71l90 166l78 -36z" />
    <glyph glyph-name="uni013B" unicode="&#x13b;" horiz-adv-x="506" 
d="M478 81v-81h-372v680h87v-599h285zM268 -248l-50 14l31 157h89z" />
    <glyph glyph-name="uni013C" unicode="&#x13c;" horiz-adv-x="264" 
d="M87 120v620h82v-616q0 -27 8.5 -40.5t34.5 -13.5h16v-75h-23q-66 0 -92 35t-26 90zM136 -248l-50 14l31 157h89z" />
    <glyph glyph-name="Lcaron" unicode="&#x13d;" horiz-adv-x="506" 
d="M478 81v-81h-372v680h87v-599h285zM333 486h-55v194h84z" />
    <glyph glyph-name="lcaron" unicode="&#x13e;" horiz-adv-x="321" 
d="M87 120v620h82v-616q0 -27 8.5 -40.5t34.5 -13.5h16v-75h-23q-66 0 -92 35t-26 90zM310 546h-55v194h84z" />
    <glyph glyph-name="Ldot" unicode="&#x13f;" horiz-adv-x="506" 
d="M478 81v-81h-372v680h87v-599h285zM448 338h-92v92h92v-92z" />
    <glyph glyph-name="ldot" unicode="&#x140;" horiz-adv-x="288" 
d="M87 120v620h82v-616q0 -27 8.5 -40.5t34.5 -13.5h16v-75h-23q-66 0 -92 35t-26 90zM318 338h-92v92h92v-92z" />
    <glyph glyph-name="Lslash" unicode="&#x141;" horiz-adv-x="516" 
d="M488 81v-81h-372v277l-87 -41v84l87 41v319h87v-278l136 64v-84l-136 -64v-237h285z" />
    <glyph glyph-name="lslash" unicode="&#x142;" horiz-adv-x="302" 
d="M249 70v-75h-23q-67 0 -92.5 35t-25.5 90v187l-87 -50v83l87 50v350h82v-304l87 50v-83l-87 -50v-229q0 -27 8.5 -40.5t34.5 -13.5h16z" />
    <glyph glyph-name="Nacute" unicode="&#x143;" horiz-adv-x="690" 
d="M106 0v680h91q91 -130 167.5 -261.5t143.5 -274.5l-10 260v276h85v-680h-91q-70 146 -144.5 284.5t-162.5 270.5l6 -277v-278h-85zM381 764h-71l90 166l78 -36z" />
    <glyph glyph-name="nacute" unicode="&#x144;" horiz-adv-x="571" 
d="M326 428q-28 0 -65.5 -14t-90.5 -57v-357h-82v495h78v-69q53 45 96.5 62t83.5 17q69 0 105.5 -43.5t36.5 -123.5v-338h-82v326q0 102 -80 102zM326 579h-71l90 166l78 -36z" />
    <glyph glyph-name="uni0145" unicode="&#x145;" horiz-adv-x="690" 
d="M106 0v680h91q91 -130 167.5 -261.5t143.5 -274.5l-10 260v276h85v-680h-91q-70 146 -144.5 284.5t-162.5 270.5l6 -277v-278h-85zM319 -248l-50 14l31 157h89z" />
    <glyph glyph-name="uni0146" unicode="&#x146;" horiz-adv-x="571" 
d="M326 428q-28 0 -65.5 -14t-90.5 -57v-357h-82v495h78v-69q53 45 96.5 62t83.5 17q69 0 105.5 -43.5t36.5 -123.5v-338h-82v326q0 102 -80 102zM262 -248l-50 14l31 157h89z" />
    <glyph glyph-name="Ncaron" unicode="&#x147;" horiz-adv-x="690" 
d="M106 0v680h91q91 -130 167.5 -261.5t143.5 -274.5l-10 260v276h85v-680h-91q-70 146 -144.5 284.5t-162.5 270.5l6 -277v-278h-85zM478 925l-93 -161h-82l-93 161h69l67 -95l67 95h65z" />
    <glyph glyph-name="ncaron" unicode="&#x148;" horiz-adv-x="571" 
d="M326 428q-28 0 -65.5 -14t-90.5 -57v-357h-82v495h78v-69q53 45 96.5 62t83.5 17q69 0 105.5 -43.5t36.5 -123.5v-338h-82v326q0 102 -80 102zM424 740l-93 -161h-82l-93 161h69l67 -95l67 95h65z" />
    <glyph glyph-name="napostrophe" unicode="&#x149;" horiz-adv-x="650" 
d="M405 428q-28 0 -65.5 -14t-90.5 -57v-357h-82v495h78v-69q53 45 96.5 62t83.5 17q69 0 105.5 -43.5t36.5 -123.5v-338h-82v326q0 102 -80 102zM114 680v-19q0 -63 -18 -119.5t-56 -121.5l-55 27q19 42 29 75.5t14 70.5t4 87h82z" />
    <glyph glyph-name="Eng" unicode="&#x14a;" horiz-adv-x="690" 
d="M498 680h85v-672q0 -68 -21.5 -120.5t-74 -81.5t-147.5 -29v84q80 0 117.5 30t40.5 106q-70 145 -148 285.5t-165 271.5l6 -276v-278h-85v680h91q89 -127 166 -256.5t145 -269.5l-10 250v276z" />
    <glyph glyph-name="eng" unicode="&#x14b;" horiz-adv-x="571" 
d="M346 505q69 0 105.5 -43.5t36.5 -123.5v-361q0 -58 -17 -103t-59 -71t-116 -26v78q53 0 81.5 25t28.5 97v349q0 102 -80 102q-28 0 -65.5 -14t-90.5 -57v-357h-82v495h78v-69q53 45 96.5 62t83.5 17z" />
    <glyph glyph-name="Omacron" unicode="&#x14c;" horiz-adv-x="647" 
d="M569 415v-149q0 -127 -63.5 -201.5t-182.5 -74.5t-182.5 74.5t-63.5 201.5v149q0 126 63.5 200.5t182.5 74.5t182.5 -74.5t63.5 -200.5zM479 415q0 93 -39.5 143.5t-116.5 50.5q-76 0 -116 -50.5t-40 -143.5v-149q0 -94 40 -145t116 -51q77 0 116.5 51t39.5 145v149z
M466 857v-63h-286v63h286z" />
    <glyph glyph-name="omacron" unicode="&#x14d;" horiz-adv-x="541" 
d="M480 278v-60q0 -106 -54.5 -167t-155.5 -61q-100 0 -155 61t-55 167v60q0 104 54.5 165.5t155.5 61.5t155.5 -61.5t54.5 -165.5zM395 278q0 71 -32 111.5t-93 40.5q-60 0 -92.5 -40.5t-32.5 -111.5v-60q0 -74 32.5 -114t92.5 -40q61 0 93 40t32 114v60zM413 672v-63h-286
v63h286z" />
    <glyph glyph-name="Obreve" unicode="&#x14e;" horiz-adv-x="647" 
d="M569 415v-149q0 -127 -63.5 -201.5t-182.5 -74.5t-182.5 74.5t-63.5 201.5v149q0 126 63.5 200.5t182.5 74.5t182.5 -74.5t63.5 -200.5zM479 415q0 93 -39.5 143.5t-116.5 50.5q-76 0 -116 -50.5t-40 -143.5v-149q0 -94 40 -145t116 -51q77 0 116.5 51t39.5 145v149z
M323 833q29 0 45.5 18.5t19.5 64.5h66q-5 -78 -41 -112t-90 -34q-55 0 -90.5 34t-40.5 112h65q3 -46 20 -64.5t46 -18.5z" />
    <glyph glyph-name="obreve" unicode="&#x14f;" horiz-adv-x="541" 
d="M480 278v-60q0 -106 -54.5 -167t-155.5 -61q-100 0 -155 61t-55 167v60q0 104 54.5 165.5t155.5 61.5t155.5 -61.5t54.5 -165.5zM395 278q0 71 -32 111.5t-93 40.5q-60 0 -92.5 -40.5t-32.5 -111.5v-60q0 -74 32.5 -114t92.5 -40q61 0 93 40t32 114v60zM270 648
q29 0 45.5 18.5t19.5 64.5h66q-5 -78 -41 -112t-90 -34q-55 0 -90.5 34t-40.5 112h65q3 -46 20 -64.5t46 -18.5z" />
    <glyph glyph-name="Ohungarumlaut" unicode="&#x150;" horiz-adv-x="647" 
d="M569 415v-149q0 -127 -63.5 -201.5t-182.5 -74.5t-182.5 74.5t-63.5 201.5v149q0 126 63.5 200.5t182.5 74.5t182.5 -74.5t63.5 -200.5zM479 415q0 93 -39.5 143.5t-116.5 50.5q-76 0 -116 -50.5t-40 -143.5v-149q0 -94 40 -145t116 -51q77 0 116.5 51t39.5 145v149z
M288 764h-67l82 166l67 -36zM426 764h-67l82 166l67 -36z" />
    <glyph glyph-name="ohungarumlaut" unicode="&#x151;" horiz-adv-x="541" 
d="M480 278v-60q0 -106 -54.5 -167t-155.5 -61q-100 0 -155 61t-55 167v60q0 104 54.5 165.5t155.5 61.5t155.5 -61.5t54.5 -165.5zM395 278q0 71 -32 111.5t-93 40.5q-60 0 -92.5 -40.5t-32.5 -111.5v-60q0 -74 32.5 -114t92.5 -40q61 0 93 40t32 114v60zM235 579h-67
l82 166l67 -36zM373 579h-67l82 166l67 -36z" />
    <glyph glyph-name="OE" unicode="&#x152;" horiz-adv-x="868" 
d="M77 415q0 124 63 194.5t180 70.5h493v-82h-282v-213h252v-82h-252v-222h292v-81h-503q-117 0 -180 70.5t-63 195.5v149zM322 81h122v517h-122q-155 0 -155 -183v-149q0 -185 155 -185z" />
    <glyph glyph-name="oe" unicode="&#x153;" horiz-adv-x="838" 
d="M781 29q-46 -21 -90.5 -30t-82.5 -9q-62 0 -105 24t-66 67q-24 -43 -66.5 -67t-100.5 -24q-100 0 -155 61t-55 167v60q0 104 54.5 165.5t155.5 61.5q59 0 101 -24.5t66 -68.5q23 44 64 68.5t96 24.5q51 0 93.5 -20.5t68 -62t25.5 -106.5q0 -41 -12 -94h-296v-4
q0 -76 32 -115t102 -39q32 0 70 8t76 25zM597 433q-58 0 -88.5 -38t-32.5 -106h224q3 20 3 35q0 56 -31 82.5t-75 26.5zM395 278q0 72 -32 112t-93 40q-60 0 -92.5 -40t-32.5 -112v-60q0 -74 32.5 -114t92.5 -40q61 0 93 40t32 114v60z" />
    <glyph glyph-name="Racute" unicode="&#x154;" horiz-adv-x="601" 
d="M193 266v-266h-87v680h213q96 0 148.5 -50.5t52.5 -134.5v-43q0 -60 -27.5 -104t-78.5 -65q43 -69 80 -140t68 -143h-100q-57 136 -133 266h-136zM319 600h-126v-254h126q51 0 81 28.5t30 77.5v43q0 50 -30 77.5t-81 27.5zM337 764h-71l90 166l78 -36z" />
    <glyph glyph-name="racute" unicode="&#x155;" horiz-adv-x="367" 
d="M348 423q-45 0 -87.5 -16t-90.5 -61v-346h-82v495h78v-80q51 50 93.5 70t88.5 20v-82zM256 579h-71l90 166l78 -36z" />
    <glyph glyph-name="uni0156" unicode="&#x156;" horiz-adv-x="601" 
d="M193 266v-266h-87v680h213q96 0 148.5 -50.5t52.5 -134.5v-43q0 -60 -27.5 -104t-78.5 -65q43 -69 80 -140t68 -143h-100q-57 136 -133 266h-136zM319 600h-126v-254h126q51 0 81 28.5t30 77.5v43q0 50 -30 77.5t-81 27.5zM298 -248l-50 14l31 157h89z" />
    <glyph glyph-name="uni0157" unicode="&#x157;" horiz-adv-x="367" 
d="M348 423q-45 0 -87.5 -16t-90.5 -61v-346h-82v495h78v-80q51 50 93.5 70t88.5 20v-82zM104 -248l-50 14l31 157h89z" />
    <glyph glyph-name="Rcaron" unicode="&#x158;" horiz-adv-x="601" 
d="M193 266v-266h-87v680h213q96 0 148.5 -50.5t52.5 -134.5v-43q0 -60 -27.5 -104t-78.5 -65q43 -69 80 -140t68 -143h-100q-57 136 -133 266h-136zM319 600h-126v-254h126q51 0 81 28.5t30 77.5v43q0 50 -30 77.5t-81 27.5zM434 925l-93 -161h-82l-93 161h69l67 -95l67 95
h65z" />
    <glyph glyph-name="rcaron" unicode="&#x159;" horiz-adv-x="367" 
d="M348 423q-45 0 -87.5 -16t-90.5 -61v-346h-82v495h78v-80q51 50 93.5 70t88.5 20v-82zM353 740l-93 -161h-82l-93 161h69l67 -95l67 95h65z" />
    <glyph glyph-name="Sacute" unicode="&#x15a;" horiz-adv-x="506" 
d="M245 68q63 0 97 27.5t34 80.5q0 44 -23.5 74t-76.5 46l-81 24q-76 23 -112 69.5t-36 114.5q0 52 20.5 94t66 67t119.5 25q45 0 93 -10.5t97 -33.5l-28 -75q-48 21 -86.5 30.5t-73.5 9.5q-57 0 -88.5 -23.5t-31.5 -77.5q0 -39 21 -65.5t75 -43.5l81 -24q152 -45 152 -194
q0 -86 -52 -139.5t-167 -53.5q-47 0 -99.5 11.5t-108.5 36.5l27 74q53 -24 95.5 -34t85.5 -10zM294 764h-71l90 166l78 -36z" />
    <glyph glyph-name="sacute" unicode="&#x15b;" horiz-adv-x="431" 
d="M209 63q100 0 100 68q0 29 -18 46t-66 29l-55 14q-61 15 -91 52.5t-30 89.5q0 38 17 70.5t54 52.5t96 20q38 0 77.5 -8.5t80.5 -28.5l-26 -69q-73 33 -132 33q-87 0 -87 -65q0 -25 16 -43t60 -29l55 -14q66 -16 97 -52t31 -93q0 -41 -17.5 -74.5t-56 -52.5t-103.5 -19
q-43 0 -85.5 9t-87.5 29l22 68q43 -17 78 -25t71 -8zM254 579h-71l90 166l78 -36z" />
    <glyph glyph-name="Scircumflex" unicode="&#x15c;" horiz-adv-x="506" 
d="M245 68q63 0 97 27.5t34 80.5q0 44 -23.5 74t-76.5 46l-81 24q-76 23 -112 69.5t-36 114.5q0 52 20.5 94t66 67t119.5 25q45 0 93 -10.5t97 -33.5l-28 -75q-48 21 -86.5 30.5t-73.5 9.5q-57 0 -88.5 -23.5t-31.5 -77.5q0 -39 21 -65.5t75 -43.5l81 -24q152 -45 152 -194
q0 -86 -52 -139.5t-167 -53.5q-47 0 -99.5 11.5t-108.5 36.5l27 74q53 -24 95.5 -34t85.5 -10zM322 764l-67 95l-67 -95h-65l93 161h82l93 -161h-69z" />
    <glyph glyph-name="scircumflex" unicode="&#x15d;" horiz-adv-x="431" 
d="M209 63q100 0 100 68q0 29 -18 46t-66 29l-55 14q-61 15 -91 52.5t-30 89.5q0 38 17 70.5t54 52.5t96 20q38 0 77.5 -8.5t80.5 -28.5l-26 -69q-73 33 -132 33q-87 0 -87 -65q0 -25 16 -43t60 -29l55 -14q66 -16 97 -52t31 -93q0 -41 -17.5 -74.5t-56 -52.5t-103.5 -19
q-43 0 -85.5 9t-87.5 29l22 68q43 -17 78 -25t71 -8zM282 579l-67 95l-67 -95h-65l93 161h82l93 -161h-69z" />
    <glyph glyph-name="Scedilla" unicode="&#x15e;" horiz-adv-x="506" 
d="M349 -132q0 -43 -31 -67t-82 -24q-21 0 -40.5 4t-38.5 11l11 56q17 -6 35 -9t32 -3q27 0 37 9t10 22q0 12 -10 21t-38 9q-6 0 -11.5 -0.5t-11.5 -1.5l-24 38l11 60q-38 4 -78.5 15t-82.5 30l27 74q53 -24 95.5 -34t85.5 -10q63 0 97 27.5t34 80.5q0 44 -23.5 74t-76.5 46
l-81 24q-76 23 -112 69.5t-36 114.5q0 52 20.5 94t66 67t119.5 25q45 0 93 -10.5t97 -33.5l-28 -75q-48 21 -86.5 30.5t-73.5 9.5q-57 0 -88.5 -23.5t-31.5 -77.5q0 -39 21 -65.5t75 -43.5l81 -24q152 -45 152 -194q0 -84 -49 -137t-158 -56l-7 -40q48 0 73.5 -22t25.5 -60z
" />
    <glyph glyph-name="scedilla" unicode="&#x15f;" horiz-adv-x="431" 
d="M311 -132q0 -43 -31 -67t-82 -24q-21 0 -40.5 4t-38.5 11l11 56q17 -6 35 -9t32 -3q27 0 37 9t10 22q0 12 -10 21t-38 9q-6 0 -11.5 -0.5t-11.5 -1.5l-24 38l11 60q-30 4 -60 12.5t-62 22.5l22 68q43 -17 78 -25t71 -8q100 0 100 68q0 29 -18 46t-66 29l-55 14
q-61 15 -91 52.5t-30 89.5q0 38 17 70.5t54 52.5t96 20q38 0 77.5 -8.5t80.5 -28.5l-26 -69q-73 33 -132 33q-87 0 -87 -65q0 -25 16 -43t60 -29l55 -14q66 -16 97 -52t31 -93q0 -61 -38.5 -102.5t-130.5 -43.5l-7 -40q48 0 73.5 -22t25.5 -60z" />
    <glyph glyph-name="Scaron" unicode="&#x160;" horiz-adv-x="506" 
d="M245 68q63 0 97 27.5t34 80.5q0 44 -23.5 74t-76.5 46l-81 24q-76 23 -112 69.5t-36 114.5q0 52 20.5 94t66 67t119.5 25q45 0 93 -10.5t97 -33.5l-28 -75q-48 21 -86.5 30.5t-73.5 9.5q-57 0 -88.5 -23.5t-31.5 -77.5q0 -39 21 -65.5t75 -43.5l81 -24q152 -45 152 -194
q0 -86 -52 -139.5t-167 -53.5q-47 0 -99.5 11.5t-108.5 36.5l27 74q53 -24 95.5 -34t85.5 -10zM391 925l-93 -161h-82l-93 161h69l67 -95l67 95h65z" />
    <glyph glyph-name="scaron" unicode="&#x161;" horiz-adv-x="431" 
d="M209 63q100 0 100 68q0 29 -18 46t-66 29l-55 14q-61 15 -91 52.5t-30 89.5q0 38 17 70.5t54 52.5t96 20q38 0 77.5 -8.5t80.5 -28.5l-26 -69q-73 33 -132 33q-87 0 -87 -65q0 -25 16 -43t60 -29l55 -14q66 -16 97 -52t31 -93q0 -41 -17.5 -74.5t-56 -52.5t-103.5 -19
q-43 0 -85.5 9t-87.5 29l22 68q43 -17 78 -25t71 -8zM351 740l-93 -161h-82l-93 161h69l67 -95l67 95h65z" />
    <glyph glyph-name="uni0162" unicode="&#x162;" horiz-adv-x="509" 
d="M13 598v82h483v-82h-198v-598h-87v598h-198zM229 -248l-50 14l31 157h89z" />
    <glyph glyph-name="uni0163" unicode="&#x163;" horiz-adv-x="380" 
d="M360 18q-56 -28 -119 -28q-54 0 -84.5 22t-43 59t-12.5 82v270h-86v72h86v138h82v-138h162v-72h-162v-267q0 -52 17.5 -71.5t54.5 -19.5q18 0 37.5 4.5t42.5 15.5zM196 -248l-50 14l31 157h89z" />
    <glyph glyph-name="Tcaron" unicode="&#x164;" horiz-adv-x="509" 
d="M13 598v82h483v-82h-198v-598h-87v598h-198zM388 925l-93 -161h-82l-93 161h69l67 -95l67 95h65z" />
    <glyph glyph-name="tcaron" unicode="&#x165;" horiz-adv-x="380" 
d="M360 18q-56 -28 -119 -28q-54 0 -84.5 22t-43 59t-12.5 82v270h-86v72h86v138h82v-138h162v-72h-162v-267q0 -52 17.5 -71.5t54.5 -19.5q18 0 37.5 4.5t42.5 15.5zM310 568h-55v194h84z" />
    <glyph glyph-name="Tbar" unicode="&#x166;" horiz-adv-x="509" 
d="M427 298h-129v-298h-87v298h-129v67h129v233h-198v82h483v-82h-198v-233h129v-67z" />
    <glyph glyph-name="tbar" unicode="&#x167;" horiz-adv-x="399" 
d="M377 18q-56 -28 -119 -28q-54 0 -84.5 22t-43 59t-12.5 82v79h-86v60h86v131h-86v72h86v138h82v-138h162v-72h-162v-131h131v-60h-131v-76q0 -52 17.5 -71.5t54.5 -19.5q18 0 37.5 4.5t42.5 15.5z" />
    <glyph glyph-name="Utilde" unicode="&#x168;" horiz-adv-x="648" 
d="M92 680h90v-436q0 -82 34.5 -128t107.5 -46q74 0 108 46t34 128v436h90v-436q0 -119 -58 -186.5t-174 -67.5q-117 0 -174.5 67.5t-57.5 186.5v436zM384 773q-25 0 -42.5 12.5t-29.5 28.5t-23 28.5t-24 12.5q-10 0 -17 -14t-7 -56h-63q1 76 24.5 107t60.5 31
q26 0 43 -12.5t29 -29t23 -29t24 -12.5q11 0 17.5 14t7.5 56h63q-1 -76 -25 -106.5t-61 -30.5z" />
    <glyph glyph-name="utilde" unicode="&#x169;" horiz-adv-x="559" 
d="M393 0v70q-52 -45 -93 -62.5t-82 -17.5q-66 0 -101 43.5t-35 122.5v339h82v-327q0 -52 18.5 -76.5t55.5 -24.5q28 0 63 14t87 56v358h82v-495h-77zM336 588q-25 0 -42.5 12.5t-29.5 28.5t-23 28.5t-24 12.5q-10 0 -17 -14t-7 -56h-63q1 76 24.5 107t60.5 31
q26 0 43 -12.5t29 -29t23 -29t24 -12.5q11 0 17.5 14t7.5 56h63q-1 -76 -25 -106.5t-61 -30.5z" />
    <glyph glyph-name="Umacron" unicode="&#x16a;" horiz-adv-x="648" 
d="M92 680h90v-436q0 -82 34.5 -128t107.5 -46q74 0 108 46t34 128v436h90v-436q0 -119 -58 -186.5t-174 -67.5q-117 0 -174.5 67.5t-57.5 186.5v436zM466 857v-63h-286v63h286z" />
    <glyph glyph-name="umacron" unicode="&#x16b;" horiz-adv-x="559" 
d="M393 0v70q-52 -45 -93 -62.5t-82 -17.5q-66 0 -101 43.5t-35 122.5v339h82v-327q0 -52 18.5 -76.5t55.5 -24.5q28 0 63 14t87 56v358h82v-495h-77zM419 672v-63h-286v63h286z" />
    <glyph glyph-name="Ubreve" unicode="&#x16c;" horiz-adv-x="648" 
d="M92 680h90v-436q0 -82 34.5 -128t107.5 -46q74 0 108 46t34 128v436h90v-436q0 -119 -58 -186.5t-174 -67.5q-117 0 -174.5 67.5t-57.5 186.5v436zM324 833q29 0 45.5 18.5t19.5 64.5h66q-5 -78 -41 -112t-90 -34q-55 0 -90.5 34t-40.5 112h65q3 -46 20 -64.5t46 -18.5z
" />
    <glyph glyph-name="ubreve" unicode="&#x16d;" horiz-adv-x="559" 
d="M393 0v70q-52 -45 -93 -62.5t-82 -17.5q-66 0 -101 43.5t-35 122.5v339h82v-327q0 -52 18.5 -76.5t55.5 -24.5q28 0 63 14t87 56v358h82v-495h-77zM276 648q29 0 45.5 18.5t19.5 64.5h66q-5 -78 -41 -112t-90 -34q-55 0 -90.5 34t-40.5 112h65q3 -46 20 -64.5t46 -18.5z
" />
    <glyph glyph-name="Uring" unicode="&#x16e;" horiz-adv-x="648" 
d="M92 680h90v-436q0 -82 34.5 -128t107.5 -46q74 0 108 46t34 128v436h90v-436q0 -119 -58 -186.5t-174 -67.5q-117 0 -174.5 67.5t-57.5 186.5v436zM438 868v-11q0 -49 -31 -79t-83 -30t-83 30t-31 79v11q0 48 31 78t83 30t83 -30t31 -78zM378 868q0 24 -15 38.5t-39 14.5
q-25 0 -40 -14.5t-15 -38.5v-11q0 -25 15 -39.5t40 -14.5q24 0 39 14.5t15 39.5v11z" />
    <glyph glyph-name="uring" unicode="&#x16f;" horiz-adv-x="559" 
d="M393 0v70q-52 -45 -93 -62.5t-82 -17.5q-66 0 -101 43.5t-35 122.5v339h82v-327q0 -52 18.5 -76.5t55.5 -24.5q28 0 63 14t87 56v358h82v-495h-77zM390 683v-11q0 -49 -31 -79t-83 -30t-83 30t-31 79v11q0 48 31 78t83 30t83 -30t31 -78zM330 683q0 24 -15 38.5t-39 14.5
q-25 0 -40 -14.5t-15 -38.5v-11q0 -25 15 -39.5t40 -14.5q24 0 39 14.5t15 39.5v11z" />
    <glyph glyph-name="Uhungarumlaut" unicode="&#x170;" horiz-adv-x="648" 
d="M92 680h90v-436q0 -82 34.5 -128t107.5 -46q74 0 108 46t34 128v436h90v-436q0 -119 -58 -186.5t-174 -67.5q-117 0 -174.5 67.5t-57.5 186.5v436zM289 764h-67l82 166l67 -36zM427 764h-67l82 166l67 -36z" />
    <glyph glyph-name="uhungarumlaut" unicode="&#x171;" horiz-adv-x="559" 
d="M393 0v70q-52 -45 -93 -62.5t-82 -17.5q-66 0 -101 43.5t-35 122.5v339h82v-327q0 -52 18.5 -76.5t55.5 -24.5q28 0 63 14t87 56v358h82v-495h-77zM241 579h-67l82 166l67 -36zM379 579h-67l82 166l67 -36z" />
    <glyph glyph-name="Uogonek" unicode="&#x172;" horiz-adv-x="648" 
d="M456 -206q-20 -8 -39 -12.5t-39 -4.5q-49 0 -75.5 24t-26.5 63q0 27 15 57t53 70q-4 -1 -9.5 -1h-10.5q-117 0 -174.5 67.5t-57.5 186.5v436h90v-436q0 -82 34.5 -128t107.5 -46q74 0 108 46t34 128v436h90v-436q0 -65 -17 -114.5t-53 -83.5q-53 -49 -82.5 -81t-41 -52
t-11.5 -36q0 -32 37 -32q25 0 53 12z" />
    <glyph glyph-name="uogonek" unicode="&#x173;" horiz-adv-x="559" 
d="M470 -206q-42 -17 -79 -17q-49 0 -75 24t-26 63q0 33 22 67t81 80v59q-52 -45 -93 -62.5t-82 -17.5q-66 0 -101 43.5t-35 122.5v339h82v-327q0 -52 18.5 -76.5t55.5 -24.5q28 0 63 14t87 56v358h82v-495q-42 -33 -65 -55t-31.5 -37.5t-8.5 -30.5q0 -32 37 -32q25 0 53 12
z" />
    <glyph glyph-name="Wcircumflex" unicode="&#x174;" horiz-adv-x="860" 
d="M186 392l48 -275l157 563h81l157 -560l50 272l59 288h86l-150 -680h-88l-156 556l-156 -556h-89l-149 680h91zM494 764l-67 95l-67 -95h-65l93 161h82l93 -161h-69z" />
    <glyph glyph-name="wcircumflex" unicode="&#x175;" horiz-adv-x="716" 
d="M685 495l-127 -495h-95l-104 406l-107 -406h-95l-126 495h84l50 -207l45 -205l107 412h87l107 -414l44 206l49 208h81zM422 579l-67 95l-67 -95h-65l93 161h82l93 -161h-69z" />
    <glyph glyph-name="Ycircumflex" unicode="&#x176;" horiz-adv-x="524" 
d="M514 680l-208 -408v-272h-87v272l-209 408h94l163 -322l157 322h90zM326 764l-67 95l-67 -95h-65l93 161h82l93 -161h-69z" />
    <glyph glyph-name="ycircumflex" unicode="&#x177;" horiz-adv-x="472" 
d="M257 -50q-32 -90 -78.5 -131.5t-129.5 -41.5v81q34 1 58.5 9t44 32.5t37.5 72.5l10 25l-178 498h84l83 -241l51 -154l49 154l81 241h81zM301 579l-67 95l-67 -95h-65l93 161h82l93 -161h-69z" />
    <glyph glyph-name="Ydieresis" unicode="&#x178;" horiz-adv-x="524" 
d="M514 680l-208 -408v-272h-87v272l-209 408h94l163 -322l157 322h90zM208 804h-86v86h86v-86zM399 804h-86v86h86v-86z" />
    <glyph glyph-name="Zacute" unicode="&#x179;" horiz-adv-x="508" 
d="M470 81v-81h-429v70l315 528h-305v82h409v-71l-316 -528h326zM291 764h-71l90 166l78 -36z" />
    <glyph glyph-name="zacute" unicode="&#x17a;" horiz-adv-x="412" 
d="M379 71v-71h-344v64l237 359h-227v72h324v-65l-238 -359h248zM243 579h-71l90 166l78 -36z" />
    <glyph glyph-name="Zdotaccent" unicode="&#x17b;" horiz-adv-x="508" 
d="M470 81v-81h-429v70l315 528h-305v82h409v-71l-316 -528h326zM300 801h-92v92h92v-92z" />
    <glyph glyph-name="zdotaccent" unicode="&#x17c;" horiz-adv-x="412" 
d="M379 71v-71h-344v64l237 359h-227v72h324v-65l-238 -359h248zM252 616h-92v92h92v-92z" />
    <glyph glyph-name="Zcaron" unicode="&#x17d;" horiz-adv-x="508" 
d="M470 81v-81h-429v70l315 528h-305v82h409v-71l-316 -528h326zM388 925l-93 -161h-82l-93 161h69l67 -95l67 95h65z" />
    <glyph glyph-name="zcaron" unicode="&#x17e;" horiz-adv-x="412" 
d="M379 71v-71h-344v64l237 359h-227v72h324v-65l-238 -359h248zM340 740l-93 -161h-82l-93 161h69l67 -95l67 95h65z" />
    <glyph glyph-name="florin" unicode="&#x192;" horiz-adv-x="362" 
d="M184 -54q-4 -45 -17 -83.5t-43 -62t-86 -23.5q-23 0 -50 5.5t-52 15.5l24 69q20 -8 36.5 -11.5t30.5 -3.5q36 0 52.5 22.5t20.5 71.5l34 375h-121v72h127l17 188q4 45 17 83.5t43.5 62t85.5 23.5q23 0 50 -5t52 -16l-23 -69q-20 8 -37 11.5t-32 3.5q-36 0 -52 -22
t-21 -72l-17 -188h121v-72h-127z" />
    <glyph glyph-name="uni0218" unicode="&#x218;" horiz-adv-x="506" 
d="M245 68q63 0 97 27.5t34 80.5q0 44 -23.5 74t-76.5 46l-81 24q-76 23 -112 69.5t-36 114.5q0 52 20.5 94t66 67t119.5 25q45 0 93 -10.5t97 -33.5l-28 -75q-48 21 -86.5 30.5t-73.5 9.5q-57 0 -88.5 -23.5t-31.5 -77.5q0 -39 21 -65.5t75 -43.5l81 -24q152 -45 152 -194
q0 -86 -52 -139.5t-167 -53.5q-47 0 -99.5 11.5t-108.5 36.5l27 74q53 -24 95.5 -34t85.5 -10zM222 -248l-50 14l31 157h89z" />
    <glyph glyph-name="uni0219" unicode="&#x219;" horiz-adv-x="431" 
d="M209 63q100 0 100 68q0 29 -18 46t-66 29l-55 14q-61 15 -91 52.5t-30 89.5q0 38 17 70.5t54 52.5t96 20q38 0 77.5 -8.5t80.5 -28.5l-26 -69q-73 33 -132 33q-87 0 -87 -65q0 -25 16 -43t60 -29l55 -14q66 -16 97 -52t31 -93q0 -41 -17.5 -74.5t-56 -52.5t-103.5 -19
q-43 0 -85.5 9t-87.5 29l22 68q43 -17 78 -25t71 -8zM181 -248l-50 14l31 157h89z" />
    <glyph glyph-name="uni021A" unicode="&#x21a;" horiz-adv-x="509" 
d="M13 598v82h483v-82h-198v-598h-87v598h-198zM229 -248l-50 14l31 157h89z" />
    <glyph glyph-name="uni021B" unicode="&#x21b;" horiz-adv-x="380" 
d="M360 18q-56 -28 -119 -28q-54 0 -84.5 22t-43 59t-12.5 82v270h-86v72h86v138h82v-138h162v-72h-162v-267q0 -52 17.5 -71.5t54.5 -19.5q18 0 37.5 4.5t42.5 15.5zM196 -248l-50 14l31 157h89z" />
    <glyph glyph-name="uni0237" unicode="&#x237;" horiz-adv-x="259" 
d="M-20 -223v78q53 0 80.5 25t27.5 97v518h82v-518q0 -58 -17 -103t-58.5 -71t-114.5 -26z" />
    <glyph glyph-name="circumflex" unicode="&#x2c6;" horiz-adv-x="500" 
d="M315 579l-67 95l-67 -95h-65l93 161h82l93 -161h-69z" />
    <glyph glyph-name="caron" unicode="&#x2c7;" horiz-adv-x="500" 
d="M384 740l-93 -161h-82l-93 161h69l67 -95l67 95h65z" />
    <glyph glyph-name="breve" unicode="&#x2d8;" horiz-adv-x="500" 
d="M250 648q29 0 45.5 18.5t19.5 64.5h66q-5 -78 -41 -112t-90 -34q-55 0 -90.5 34t-40.5 112h65q3 -46 20 -64.5t46 -18.5z" />
    <glyph glyph-name="dotaccent" unicode="&#x2d9;" horiz-adv-x="500" 
d="M296 616h-92v92h92v-92z" />
    <glyph glyph-name="ring" unicode="&#x2da;" horiz-adv-x="500" 
d="M364 683v-11q0 -49 -31 -79t-83 -30t-83 30t-31 79v11q0 48 31 78t83 30t83 -30t31 -78zM304 683q0 24 -15 38.5t-39 14.5q-25 0 -40 -14.5t-15 -38.5v-11q0 -25 15 -39.5t40 -14.5q24 0 39 14.5t15 39.5v11z" />
    <glyph glyph-name="ogonek" unicode="&#x2db;" horiz-adv-x="500" 
d="M271 -155q25 0 53 12l15 -63q-42 -17 -79 -17q-49 0 -75 24t-26 63q0 26 13 52t45 57t89 70l33 -43q-42 -33 -65 -55t-31.5 -37.5t-8.5 -30.5q0 -32 37 -32z" />
    <glyph glyph-name="tilde" unicode="&#x2dc;" horiz-adv-x="500" 
d="M310 588q-25 0 -42.5 12.5t-29.5 28.5t-23 28.5t-24 12.5q-10 0 -17 -14t-7 -56h-63q1 76 24.5 107t60.5 31q26 0 43 -12.5t29 -29t23 -29t24 -12.5q11 0 17.5 14t7.5 56h63q-1 -76 -25 -106.5t-61 -30.5z" />
    <glyph glyph-name="hungarumlaut" unicode="&#x2dd;" horiz-adv-x="500" 
d="M215 579h-67l82 166l67 -36zM353 579h-67l82 166l67 -36z" />
    <glyph glyph-name="pi" unicode="&#x3c0;" horiz-adv-x="561" 
d="M25 423v72h508v-72h-79v-292q0 -31 10 -46t40 -15h29v-75h-33q-74 0 -101 35.5t-27 100.5v292h-186v-423h-82v423h-79z" />
    <glyph glyph-name="Wgrave" unicode="&#x1e80;" horiz-adv-x="860" 
d="M186 392l48 -275l157 563h81l157 -560l50 272l59 288h86l-150 -680h-88l-156 556l-156 -556h-89l-149 680h91zM394 764l-98 130l79 36l90 -166h-71z" />
    <glyph glyph-name="wgrave" unicode="&#x1e81;" horiz-adv-x="716" 
d="M685 495l-127 -495h-95l-104 406l-107 -406h-95l-126 495h84l50 -207l45 -205l107 412h87l107 -414l44 206l49 208h81zM322 579l-98 130l79 36l90 -166h-71z" />
    <glyph glyph-name="Wacute" unicode="&#x1e82;" horiz-adv-x="860" 
d="M186 392l48 -275l157 563h81l157 -560l50 272l59 288h86l-150 -680h-88l-156 556l-156 -556h-89l-149 680h91zM466 764h-71l90 166l78 -36z" />
    <glyph glyph-name="wacute" unicode="&#x1e83;" horiz-adv-x="716" 
d="M685 495l-127 -495h-95l-104 406l-107 -406h-95l-126 495h84l50 -207l45 -205l107 412h87l107 -414l44 206l49 208h81zM394 579h-71l90 166l78 -36z" />
    <glyph glyph-name="Wdieresis" unicode="&#x1e84;" horiz-adv-x="860" 
d="M186 392l48 -275l157 563h81l157 -560l50 272l59 288h86l-150 -680h-88l-156 556l-156 -556h-89l-149 680h91zM376 804h-86v86h86v-86zM567 804h-86v86h86v-86z" />
    <glyph glyph-name="wdieresis" unicode="&#x1e85;" horiz-adv-x="716" 
d="M685 495l-127 -495h-95l-104 406l-107 -406h-95l-126 495h84l50 -207l45 -205l107 412h87l107 -414l44 206l49 208h81zM304 619h-86v86h86v-86zM495 619h-86v86h86v-86z" />
    <glyph glyph-name="uni1E9E" unicode="&#x1e9e;" horiz-adv-x="603" 
d="M560 160q0 -77 -45 -123.5t-128 -46.5q-36 0 -75.5 9t-80.5 28l24 74q36 -18 67.5 -25t61.5 -7q44 0 65.5 24.5t21.5 66.5v16q0 46 -20.5 71.5t-64.5 43.5l-88 35v65l104 193q-46 26 -104 26t-90 -35.5t-32 -105.5v-469h-87v469q0 103 54 162t152 59q59 0 106 -17.5
t81 -48.5v-59l-101 -183l41 -16q67 -26 102.5 -68t35.5 -122v-16z" />
    <glyph glyph-name="Ygrave" unicode="&#x1ef2;" horiz-adv-x="524" 
d="M514 680l-208 -408v-272h-87v272l-209 408h94l163 -322l157 322h90zM226 764l-98 130l79 36l90 -166h-71z" />
    <glyph glyph-name="ygrave" unicode="&#x1ef3;" horiz-adv-x="472" 
d="M257 -50q-32 -90 -78.5 -131.5t-129.5 -41.5v81q34 1 58.5 9t44 32.5t37.5 72.5l10 25l-178 498h84l83 -241l51 -154l49 154l81 241h81zM201 579l-98 130l79 36l90 -166h-71z" />
    <glyph glyph-name="endash" unicode="&#x2013;" horiz-adv-x="592" 
d="M56 267v72h480v-72h-480z" />
    <glyph glyph-name="emdash" unicode="&#x2014;" horiz-adv-x="792" 
d="M56 267v72h680v-72h-680z" />
    <glyph glyph-name="quoteleft" unicode="&#x2018;" horiz-adv-x="192" 
d="M37 430v19q0 62 18.5 119t55.5 122l54 -28q-19 -41 -29 -74.5t-13.5 -70t-3.5 -87.5h-82z" />
    <glyph glyph-name="quoteright" unicode="&#x2019;" horiz-adv-x="192" 
d="M155 680v-19q0 -63 -18 -119.5t-56 -121.5l-55 27q19 42 29 75.5t14 70.5t4 87h82z" />
    <glyph glyph-name="quotesinglbase" unicode="&#x201a;" horiz-adv-x="192" 
d="M137 91v-19q0 -62 -18 -118.5t-56 -121.5l-55 27q19 42 29 75.5t14 70t4 86.5h82z" />
    <glyph glyph-name="quotedblleft" unicode="&#x201c;" horiz-adv-x="356" 
d="M201 430v19q0 62 18.5 119t55.5 122l54 -28q-19 -41 -29 -74.5t-13.5 -70t-3.5 -87.5h-82zM37 430v19q0 62 18.5 119t55.5 122l54 -28q-19 -41 -29 -74.5t-13.5 -70t-3.5 -87.5h-82z" />
    <glyph glyph-name="quotedblright" unicode="&#x201d;" horiz-adv-x="356" 
d="M155 680v-19q0 -63 -18 -119.5t-56 -121.5l-55 27q19 42 29 75.5t14 70.5t4 87h82zM319 680v-19q0 -63 -18 -119.5t-56 -121.5l-55 27q19 42 29 75.5t14 70.5t4 87h82z" />
    <glyph glyph-name="quotedblbase" unicode="&#x201e;" horiz-adv-x="356" 
d="M137 91v-19q0 -62 -18 -118.5t-56 -121.5l-55 27q19 42 29 75.5t14 70t4 86.5h82zM301 91v-19q0 -62 -18 -118.5t-56 -121.5l-55 27q19 42 29 75.5t14 70t4 86.5h82z" />
    <glyph glyph-name="dagger" unicode="&#x2020;" horiz-adv-x="431" 
d="M380 434l-136 14l14 -152v-66l-16 -373h-55l-15 373v66l14 152l-136 -13h-36v82h36l136 -14l-14 141v36h86v-36l-14 -141l136 13h36v-82h-36z" />
    <glyph glyph-name="daggerdbl" unicode="&#x2021;" horiz-adv-x="453" 
d="M269 -107v-36h-86v36l14 140l-136 -13h-36v82h36l136 -14l-14 152v56l14 152l-136 -13h-36v82h36l136 -14l-13 141v36h85v-36l-13 -141l136 13h36v-82h-36l-136 14l13 -152v-56l-14 -152l136 14h36v-82h-36l-136 13z" />
    <glyph glyph-name="bullet" unicode="&#x2022;" horiz-adv-x="243" 
d="M184 271h-125v125h125v-125z" />
    <glyph glyph-name="ellipsis" unicode="&#x2026;" horiz-adv-x="592" 
d="M142 0h-92v91h92v-91zM342 0h-92v91h92v-91zM542 0h-92v91h92v-91z" />
    <glyph glyph-name="perthousand" unicode="&#x2030;" horiz-adv-x="1097" 
d="M309 546v-31q0 -67 -35.5 -103.5t-98.5 -36.5q-64 0 -99 36.5t-35 103.5v31q0 66 35 102.5t99 36.5q63 0 98.5 -36.5t35.5 -102.5zM518 680h71l-348 -680h-71zM243 546q0 38 -18 58t-50 20t-50 -20t-18 -58v-31q0 -39 18 -59t50 -20t50 20t18 59v31zM718 166v-31
q0 -67 -35.5 -103.5t-98.5 -36.5q-64 0 -99 36.5t-35 103.5v31q0 66 35 102.5t99 36.5t99 -36.5t35 -102.5zM1056 166v-31q0 -67 -35.5 -103.5t-98.5 -36.5q-64 0 -99 36.5t-35 103.5v31q0 66 35 102.5t99 36.5q63 0 98.5 -36.5t35.5 -102.5zM653 166q0 78 -69 78
q-32 0 -50 -20t-18 -58v-31q0 -39 18 -59t50 -20q69 0 69 79v31zM990 166q0 38 -18 58t-50 20t-50 -20t-18 -58v-31q0 -39 18 -59t50 -20t50 20t18 59v31z" />
    <glyph glyph-name="guilsinglleft" unicode="&#x2039;" horiz-adv-x="377" 
d="M322 105v-91l-284 207v53l284 204v-88l-202 -142z" />
    <glyph glyph-name="guilsinglright" unicode="&#x203a;" horiz-adv-x="377" 
d="M338 218l-284 -204v87l202 142l-202 143v92l284 -207v-53z" />
    <glyph glyph-name="fraction" unicode="&#x2044;" horiz-adv-x="111" 
d="M194 680h71l-348 -680h-71z" />
    <glyph glyph-name="uni2070" unicode="&#x2070;" horiz-adv-x="336" 
d="M296 652v-74q0 -68 -34 -103t-94 -35q-61 0 -94.5 35t-33.5 103v74q0 68 33.5 103t94.5 35t94.5 -35t33.5 -103zM231 652q0 41 -17 59t-46 18t-45.5 -18t-16.5 -59v-74q0 -40 16.5 -58.5t45.5 -18.5t46 18.5t17 58.5v74z" />
    <glyph glyph-name="uni2074" unicode="&#x2074;" horiz-adv-x="267" 
d="M256 522h-37v-77h-59v77h-148v46q38 58 69 110.5t51 106.5h68q-20 -52 -48.5 -102t-65.5 -104h74v48h59v-48h37v-57z" />
    <glyph glyph-name="uni2075" unicode="&#x2075;" horiz-adv-x="274" 
d="M37 619l10 166h187v-59h-132l-5 -72q18 6 41 6q47 0 78 -25t31 -75v-15q0 -47 -30.5 -76t-92.5 -29q-25 0 -50 4.5t-51 16.5l19 58q23 -10 42.5 -14t37.5 -4q28 0 43.5 10t15.5 34v15q0 20 -13.5 32t-41.5 12q-14 0 -28 -3.5t-29 -9.5z" />
    <glyph glyph-name="uni2076" unicode="&#x2076;" horiz-adv-x="304" 
d="M276 543q0 -46 -30.5 -74.5t-83.5 -28.5q-59 0 -90 36.5t-31 102.5v73q0 71 34.5 104.5t94.5 33.5q23 0 46 -5t49 -17l-19 -56q-22 11 -40 14t-34 3q-32 0 -50.5 -17.5t-18.5 -59.5v-19q34 31 79 31q42 0 68 -28t26 -75v-18zM167 605q-16 0 -32 -7t-32 -20q0 -78 59 -78
q51 0 51 43v18q0 20 -12 32t-34 12z" />
    <glyph glyph-name="uni2077" unicode="&#x2077;" horiz-adv-x="239" 
d="M225 729q-34 -71 -58.5 -142t-36.5 -142h-67q13 71 37 141.5t58 137.5h-149v61h216v-56z" />
    <glyph glyph-name="uni2078" unicode="&#x2078;" horiz-adv-x="307" 
d="M271 536q0 -42 -29.5 -69t-88.5 -27t-86.5 26t-27.5 64q0 24 12 44t40 39q-44 30 -44 83q0 40 27.5 67t79.5 27q56 0 83 -27t27 -64q0 -44 -46 -76q26 -15 39.5 -36t13.5 -51zM147 651l28 -10q15 15 20.5 28.5t5.5 24.5q0 17 -11.5 28t-34.5 11q-21 0 -33.5 -10.5
t-12.5 -27.5q0 -32 38 -44zM101 537q0 -19 14 -29.5t39 -10.5q24 0 39.5 8.5t15.5 30.5q0 15 -10 26t-35 20l-31 10q-17 -14 -24.5 -27.5t-7.5 -27.5z" />
    <glyph glyph-name="uni2079" unicode="&#x2079;" horiz-adv-x="304" 
d="M263 577q0 -70 -34.5 -103.5t-95.5 -33.5q-22 0 -45 4.5t-50 16.5l20 57q21 -11 39.5 -14.5t33.5 -3.5q32 0 51 17.5t19 59.5v20q-17 -15 -36.5 -23t-42.5 -8q-43 0 -68.5 27.5t-25.5 74.5v18q0 46 30.5 75t83.5 29q59 0 90 -37t31 -103v-73zM91 668q0 -20 12 -32t34 -12
q17 0 32.5 7t31.5 20q0 78 -59 78q-51 0 -51 -43v-18z" />
    <glyph glyph-name="uni2080" unicode="&#x2080;" horiz-adv-x="336" 
d="M296 102v-74q0 -68 -34 -103t-94 -35q-61 0 -94.5 35t-33.5 103v74q0 68 33.5 103t94.5 35t94.5 -35t33.5 -103zM231 102q0 41 -17 59t-46 18t-45.5 -18t-16.5 -59v-74q0 -40 16.5 -58.5t45.5 -18.5t46 18.5t17 58.5v74z" />
    <glyph glyph-name="uni2081" unicode="&#x2081;" horiz-adv-x="222" 
d="M21 185l91 50h56v-340h-64v269l-56 -30z" />
    <glyph glyph-name="uni2082" unicode="&#x2082;" horiz-adv-x="270" 
d="M240 -105h-216v41q0 56 21 84.5t58 46.5l33 16q20 11 30 21.5t10 28.5v7q0 39 -52 39q-38 0 -87 -20l-15 59q53 22 103 22q62 0 89 -27.5t27 -71.5v-9q0 -40 -23 -62.5t-58 -39.5l-32 -16q-19 -9 -28 -21.5t-11 -35.5h151v-62z" />
    <glyph glyph-name="uni2083" unicode="&#x2083;" horiz-adv-x="274" 
d="M235 -14q0 -43 -28.5 -69.5t-90.5 -26.5q-24 0 -49.5 5t-49.5 16l17 57q22 -10 42 -13.5t38 -3.5q56 0 56 38v8q0 19 -14 30.5t-43 11.5h-43v55h43q28 0 41 11t13 29v7q0 20 -14.5 29t-37.5 9q-16 0 -33.5 -3.5t-39.5 -13.5l-19 58q24 11 48 15.5t46 4.5q60 0 87.5 -27
t27.5 -68v-7q0 -49 -47 -72q50 -21 50 -72v-8z" />
    <glyph glyph-name="uni2084" unicode="&#x2084;" horiz-adv-x="267" 
d="M256 -28h-37v-77h-59v77h-148v46q38 58 69 110.5t51 106.5h68q-20 -52 -48.5 -102t-65.5 -104h74v48h59v-48h37v-57z" />
    <glyph glyph-name="uni2085" unicode="&#x2085;" horiz-adv-x="274" 
d="M37 69l10 166h187v-59h-132l-5 -72q18 6 41 6q47 0 78 -25t31 -75v-15q0 -47 -30.5 -76t-92.5 -29q-25 0 -50 4.5t-51 16.5l19 58q23 -10 42.5 -14t37.5 -4q28 0 43.5 10t15.5 34v15q0 20 -13.5 32t-41.5 12q-14 0 -28 -3.5t-29 -9.5z" />
    <glyph glyph-name="uni2086" unicode="&#x2086;" horiz-adv-x="304" 
d="M276 -7q0 -46 -30.5 -74.5t-83.5 -28.5q-59 0 -90 36.5t-31 102.5v73q0 71 34.5 104.5t94.5 33.5q23 0 46 -5t49 -17l-19 -56q-22 11 -40 14t-34 3q-32 0 -50.5 -17.5t-18.5 -59.5v-19q34 31 79 31q42 0 68 -28t26 -75v-18zM167 55q-16 0 -32 -7t-32 -20q0 -78 59 -78
q51 0 51 43v18q0 20 -12 32t-34 12z" />
    <glyph glyph-name="uni2087" unicode="&#x2087;" horiz-adv-x="239" 
d="M225 179q-34 -71 -58.5 -142t-36.5 -142h-67q13 71 37 141.5t58 137.5h-149v61h216v-56z" />
    <glyph glyph-name="uni2088" unicode="&#x2088;" horiz-adv-x="307" 
d="M271 -14q0 -42 -29.5 -69t-88.5 -27t-86.5 26t-27.5 64q0 24 12 44t40 39q-44 30 -44 83q0 40 27.5 67t79.5 27q56 0 83 -27t27 -64q0 -44 -46 -76q26 -15 39.5 -36t13.5 -51zM147 101l28 -10q15 15 20.5 28.5t5.5 24.5q0 17 -11.5 28t-34.5 11q-21 0 -33.5 -10.5
t-12.5 -27.5q0 -32 38 -44zM101 -13q0 -19 14 -29.5t39 -10.5q24 0 39.5 8.5t15.5 30.5q0 15 -10 26t-35 20l-31 10q-17 -14 -24.5 -27.5t-7.5 -27.5z" />
    <glyph glyph-name="uni2089" unicode="&#x2089;" horiz-adv-x="304" 
d="M263 27q0 -70 -34.5 -103.5t-95.5 -33.5q-22 0 -45 4.5t-50 16.5l20 57q21 -11 39.5 -14.5t33.5 -3.5q32 0 51 17.5t19 59.5v20q-17 -15 -36.5 -23t-42.5 -8q-43 0 -68.5 27.5t-25.5 74.5v18q0 46 30.5 75t83.5 29q59 0 90 -37t31 -103v-73zM91 118q0 -20 12 -32t34 -12
q17 0 32.5 7t31.5 20q0 78 -59 78q-51 0 -51 -43v-18z" />
    <glyph glyph-name="Euro" unicode="&#x20ac;" horiz-adv-x="576" 
d="M540 32q-49 -22 -93 -32t-85 -10q-105 0 -165 59t-72 162h-89v69h86v100h-86v68h87q8 113 69 177.5t170 64.5q41 0 85.5 -10t90.5 -32l-28 -75q-81 36 -145 36q-70 0 -108 -41.5t-44 -119.5h235l-13 -68h-223v-100h207l-14 -69h-190q20 -141 150 -141q34 0 67 8t79 28z
" />
    <glyph glyph-name="uni20B9" unicode="&#x20b9;" horiz-adv-x="541" 
d="M345 0q-48 54 -92.5 98t-91 85t-101.5 83v67h157q50 0 81 28.5t35 78.5h-273v67h273q-4 50 -35 78t-81 28h-157v67h445v-67h-139q47 -40 52 -106h87v-67h-87q-4 -79 -56 -126.5t-145 -47.5h-38q80 -62 145 -124t135 -142h-114z" />
    <glyph glyph-name="uni2113" unicode="&#x2113;" horiz-adv-x="383" 
d="M322 19q-29 -15 -58.5 -22t-58.5 -7q-52 0 -81 19.5t-41 52t-12 69.5v400q0 41 14.5 77t46.5 59t83 23q35 0 67.5 -13.5t54 -46.5t21.5 -92q0 -50 -20 -97.5t-64.5 -101.5t-120.5 -125v-78q0 -40 15.5 -55.5t43.5 -15.5q18 0 41 5t47 18zM153 532v-222q72 74 98 126
t26 98q0 44 -17.5 62.5t-42.5 18.5q-28 0 -46 -19.5t-18 -63.5z" />
    <glyph glyph-name="uni2116" unicode="&#x2116;" horiz-adv-x="1088" 
d="M1042 521v-42q0 -73 -41.5 -118.5t-116.5 -45.5q-76 0 -117 45.5t-41 118.5v42q0 70 40.5 117t117.5 47q76 0 117 -47t41 -117zM106 0v680h91q91 -130 167.5 -261.5t143.5 -274.5l-10 260v276h85v-680h-91q-70 146 -144.5 284.5t-162.5 270.5l6 -277v-278h-85zM971 521
q0 46 -23 72t-64 26q-42 0 -65 -26t-23 -72v-42q0 -49 23.5 -74t64.5 -25t64 25t23 74v42zM745 164v65h278v-65h-278z" />
    <glyph glyph-name="trademark" unicode="&#x2122;" horiz-adv-x="716" 
d="M395 680l99 -218l99 218h69v-340h-60v97l3 146l-91 -199h-45l-88 198l3 -145v-97h-60v340h71zM5 621v59h271v-59h-104v-281h-63v281h-104z" />
    <glyph glyph-name="uni2126" unicode="&#x2126;" horiz-adv-x="655" 
d="M275 185v-185h-213v79h134v54q-64 30 -98 93t-34 148v42q0 82 30 143.5t88.5 96t143.5 34.5t143.5 -34.5t89 -96t30.5 -143.5v-42q0 -84 -33 -146.5t-97 -93.5v-55h134v-79h-213v186q59 15 89 64t30 124v42q0 90 -43.5 141.5t-129.5 51.5q-85 0 -128.5 -51.5
t-43.5 -141.5v-42q0 -76 31 -125.5t90 -63.5z" />
    <glyph glyph-name="estimated" unicode="&#x212e;" horiz-adv-x="813" 
d="M774 305h-583q-5 0 -5 -4v-176q0 -12 8 -20q42 -44 99 -70t122 -26q70 0 129.5 29t102.5 78h52q-49 -57 -123.5 -91.5t-161.5 -34.5q-75 0 -140 25t-114.5 69.5t-77.5 103.5t-28 126t28 126t77.5 103.5t114.5 69.5t140 25t140 -25t114.5 -69.5t77.5 -103.5t28 -126v-9z
M642 328v178q0 12 -9 21q-42 42 -98 67t-120 25t-121 -25.5t-99 -69.5q-9 -9 -9 -22v-174q0 -5 5 -5h447q4 0 4 5z" />
    <glyph glyph-name="uni2153" unicode="&#x2153;" horiz-adv-x="638" 
d="M21 630l91 50h56v-340h-64v269l-56 -30zM435 680h71l-348 -680h-71zM598 91q0 -43 -28.5 -69.5t-90.5 -26.5q-24 0 -49.5 5t-49.5 16l17 57q22 -10 42 -13.5t38 -3.5q56 0 56 38v8q0 19 -14 30.5t-43 11.5h-43v55h43q28 0 41 11t13 29v7q0 20 -14.5 29t-37.5 9
q-16 0 -33.5 -3.5t-39.5 -13.5l-19 58q24 11 48 15.5t46 4.5q60 0 87.5 -27t27.5 -68v-7q0 -49 -47 -72q50 -21 50 -72v-8z" />
    <glyph glyph-name="uni2154" unicode="&#x2154;" horiz-adv-x="685" 
d="M240 340h-216v41q0 56 21 84.5t58 46.5l33 16q20 11 30 21.5t10 28.5v7q0 39 -52 39q-38 0 -87 -20l-15 59q53 22 103 22q62 0 89 -27.5t27 -71.5v-9q0 -40 -23 -62.5t-58 -39.5l-32 -16q-19 -9 -28 -21.5t-11 -35.5h151v-62zM483 680h71l-348 -680h-71zM646 91
q0 -43 -28.5 -69.5t-90.5 -26.5q-24 0 -49.5 5t-49.5 16l17 57q22 -10 42 -13.5t38 -3.5q56 0 56 38v8q0 19 -14 30.5t-43 11.5h-43v55h43q28 0 41 11t13 29v7q0 20 -14.5 29t-37.5 9q-16 0 -33.5 -3.5t-39.5 -13.5l-19 58q24 11 48 15.5t46 4.5q60 0 87.5 -27t27.5 -68v-7
q0 -49 -47 -72q50 -21 50 -72v-8z" />
    <glyph glyph-name="oneeighth" unicode="&#x215b;" horiz-adv-x="653" 
d="M21 630l91 50h56v-340h-64v269l-56 -30zM435 680h71l-348 -680h-71zM617 91q0 -42 -29.5 -69t-88.5 -27t-86.5 26t-27.5 64q0 24 12 44t40 39q-44 30 -44 83q0 40 27.5 67t79.5 27q56 0 83 -27t27 -64q0 -44 -46 -76q26 -15 39.5 -36t13.5 -51zM493 206l28 -10
q15 15 20.5 28.5t5.5 24.5q0 17 -11.5 28t-34.5 11q-21 0 -33.5 -10.5t-12.5 -27.5q0 -32 38 -44zM447 92q0 -19 14 -29.5t39 -10.5q24 0 39.5 8.5t15.5 30.5q0 15 -10 26t-35 20l-31 10q-17 -14 -24.5 -27.5t-7.5 -27.5z" />
    <glyph glyph-name="threeeighths" unicode="&#x215c;" horiz-adv-x="686" 
d="M235 431q0 -43 -28.5 -69.5t-90.5 -26.5q-24 0 -49.5 5t-49.5 16l17 57q22 -10 42 -13.5t38 -3.5q56 0 56 38v8q0 19 -14 30.5t-43 11.5h-43v55h43q28 0 41 11t13 29v7q0 20 -14.5 29t-37.5 9q-16 0 -33.5 -3.5t-39.5 -13.5l-19 58q24 11 48 15.5t46 4.5q60 0 87.5 -27
t27.5 -68v-7q0 -49 -47 -72q50 -21 50 -72v-8zM468 680h71l-348 -680h-71zM650 91q0 -42 -29.5 -69t-88.5 -27t-86.5 26t-27.5 64q0 24 12 44t40 39q-44 30 -44 83q0 40 27.5 67t79.5 27q56 0 83 -27t27 -64q0 -44 -46 -76q26 -15 39.5 -36t13.5 -51zM526 206l28 -10
q15 15 20.5 28.5t5.5 24.5q0 17 -11.5 28t-34.5 11q-21 0 -33.5 -10.5t-12.5 -27.5q0 -32 38 -44zM480 92q0 -19 14 -29.5t39 -10.5q24 0 39.5 8.5t15.5 30.5q0 15 -10 26t-35 20l-31 10q-17 -14 -24.5 -27.5t-7.5 -27.5z" />
    <glyph glyph-name="fiveeighths" unicode="&#x215d;" horiz-adv-x="686" 
d="M37 514l10 166h187v-59h-132l-5 -72q18 6 41 6q47 0 78 -25t31 -75v-15q0 -47 -30.5 -76t-92.5 -29q-25 0 -50 4.5t-51 16.5l19 58q23 -10 42.5 -14t37.5 -4q28 0 43.5 10t15.5 34v15q0 20 -13.5 32t-41.5 12q-14 0 -28 -3.5t-29 -9.5zM468 680h71l-348 -680h-71zM650 91
q0 -42 -29.5 -69t-88.5 -27t-86.5 26t-27.5 64q0 24 12 44t40 39q-44 30 -44 83q0 40 27.5 67t79.5 27q56 0 83 -27t27 -64q0 -44 -46 -76q26 -15 39.5 -36t13.5 -51zM526 206l28 -10q15 15 20.5 28.5t5.5 24.5q0 17 -11.5 28t-34.5 11q-21 0 -33.5 -10.5t-12.5 -27.5
q0 -32 38 -44zM480 92q0 -19 14 -29.5t39 -10.5q24 0 39.5 8.5t15.5 30.5q0 15 -10 26t-35 20l-31 10q-17 -14 -24.5 -27.5t-7.5 -27.5z" />
    <glyph glyph-name="seveneighths" unicode="&#x215e;" horiz-adv-x="645" 
d="M225 624q-34 -71 -58.5 -142t-36.5 -142h-67q13 71 37 141.5t58 137.5h-149v61h216v-56zM427 680h71l-348 -680h-71zM609 91q0 -42 -29.5 -69t-88.5 -27t-86.5 26t-27.5 64q0 24 12 44t40 39q-44 30 -44 83q0 40 27.5 67t79.5 27q56 0 83 -27t27 -64q0 -44 -46 -76
q26 -15 39.5 -36t13.5 -51zM485 206l28 -10q15 15 20.5 28.5t5.5 24.5q0 17 -11.5 28t-34.5 11q-21 0 -33.5 -10.5t-12.5 -27.5q0 -32 38 -44zM439 92q0 -19 14 -29.5t39 -10.5q24 0 39.5 8.5t15.5 30.5q0 15 -10 26t-35 20l-31 10q-17 -14 -24.5 -27.5t-7.5 -27.5z" />
    <glyph glyph-name="arrowleft" unicode="&#x2190;" horiz-adv-x="651" 
d="M315 185l-35 -46l-238 195v45l238 193l35 -46l-148 -135h432v-67h-433z" />
    <glyph glyph-name="arrowup" unicode="&#x2191;" horiz-adv-x="651" 
d="M493 362l-136 149v-433h-67v433l-138 -149l-46 35l195 238h45l193 -238z" />
    <glyph glyph-name="arrowright" unicode="&#x2192;" horiz-adv-x="651" 
d="M602 334l-238 -193l-35 46l149 135h-433v67h434l-150 139l35 46l238 -195v-45z" />
    <glyph glyph-name="arrowdown" unicode="&#x2193;" horiz-adv-x="651" 
d="M539 317l-195 -238h-45l-193 238l46 36l135 -148v431h67v-433l139 150z" />
    <glyph glyph-name="arrowboth" unicode="&#x2194;" horiz-adv-x="781" 
d="M315 185l-35 -46l-238 195v45l238 193l35 -46l-148 -135h447l-149 138l36 46l238 -195v-45l-238 -193l-36 46l149 136h-448z" />
    <glyph glyph-name="arrowupdn" unicode="&#x2195;" horiz-adv-x="651" 
d="M543 247l-195 -238h-45l-193 238l46 36l136 -149v449l-139 -150l-46 35l195 238h45l193 -238l-46 -35l-135 149v-448l138 149z" />
    <glyph glyph-name="uni2196" unicode="&#x2196;" horiz-adv-x="651" 
d="M542 184l-47 -47l-306 306l8 -204l-58 -8l-31 307l32 32l305 -32l-7 -58l-202 10z" />
    <glyph glyph-name="uni2197" unicode="&#x2197;" horiz-adv-x="651" 
d="M447 239l8 201l-305 -305l-47 48l306 306l-204 -8l-7 57l306 31l32 -32l-32 -305z" />
    <glyph glyph-name="uni2198" unicode="&#x2198;" horiz-adv-x="651" 
d="M533 176l-32 -32l-305 32l7 57l202 -9l-306 306l47 47l306 -306l-7 204l57 7z" />
    <glyph glyph-name="uni2199" unicode="&#x2199;" horiz-adv-x="651" 
d="M445 177l-306 -31l-32 32l32 305l58 -8l-10 -201l306 306l47 -48l-306 -306l204 8z" />
    <glyph glyph-name="partialdiff" unicode="&#x2202;" horiz-adv-x="537" 
d="M471 246q-8 -121 -69 -188.5t-159 -67.5q-62 0 -107.5 27t-69 76.5t-18.5 115.5l3 36q4 55 27.5 99.5t65 71t99.5 26.5q77 0 138 -51q-17 86 -73 162t-149 129l37 68q105 -61 168 -137.5t89 -160t20 -165.5zM133 206q-4 -65 26 -103.5t84 -38.5q60 0 99 47.5t44 138.5
l3 53q-37 35 -71 49t-66 14q-52 0 -82 -35.5t-34 -88.5z" />
    <glyph glyph-name="uni2206" unicode="&#x2206;" horiz-adv-x="558" 
d="M521 65v-65h-484v65l201 615h81zM211 354l-87 -278h305l-88 278l-65 207z" />
    <glyph glyph-name="product" unicode="&#x220f;" horiz-adv-x="703" 
d="M29 598v82h644v-82h-87v-741h-87v741h-296v-741h-87v741h-87z" />
    <glyph glyph-name="summation" unicode="&#x2211;" horiz-adv-x="525" 
d="M513 -61v-82h-483v71l270 342l-267 339v71h462v-82h-345l232 -296v-59l-238 -304h369z" />
    <glyph glyph-name="minus" unicode="&#x2212;" 
d="M87 266v72h414v-72h-414z" />
    <glyph glyph-name="uni2215" unicode="&#x2215;" horiz-adv-x="111" 
d="M194 680h71l-348 -680h-71z" />
    <glyph glyph-name="radical" unicode="&#x221a;" 
d="M32 299v72h157l96 -251l217 560h79l-271 -680h-55l-121 299h-102z" />
    <glyph glyph-name="infinity" unicode="&#x221e;" horiz-adv-x="777" 
d="M551 104q-59 0 -102.5 30.5t-71.5 85.5q-31 -62 -72 -89.5t-91 -27.5q-46 0 -85 22.5t-62.5 68t-23.5 114.5q0 71 25.5 116t66.5 67t89 22q61 0 105 -31t71 -86q32 62 72 89.5t90 27.5q47 0 86 -22t62.5 -67.5t23.5 -114.5q0 -71 -25.5 -116.5t-67.5 -67t-90 -21.5z
M438 293q20 -55 47 -79t66 -24q53 0 80.5 33.5t27.5 86.5q0 59 -29.5 88t-74.5 29q-35 0 -65 -22.5t-62 -82.5zM118 307q0 -58 29.5 -87.5t76.5 -29.5q34 0 63.5 22.5t61.5 81.5l-10 30q-19 55 -47 78.5t-68 23.5q-52 0 -79 -33t-27 -86z" />
    <glyph glyph-name="integral" unicode="&#x222b;" horiz-adv-x="343" 
d="M182 -54q-4 -45 -17 -83.5t-43 -62t-86 -23.5q-23 0 -50 5.5t-51 15.5l23 69q20 -8 36.5 -11.5t30.5 -3.5q36 0 52.5 22.5t21.5 71.5l56 635q4 45 17 83.5t43.5 62t85.5 23.5q23 0 50 -5t52 -16l-23 -69q-20 8 -37 11.5t-31 3.5q-37 0 -53 -22t-21 -72z" />
    <glyph glyph-name="approxequal" unicode="&#x2248;" 
d="M382 312q-37 0 -62 17t-43.5 39t-35.5 39t-38 17q-18 0 -33.5 -19.5t-26.5 -79.5l-66 16q16 89 50 122t77 33q37 0 62 -17t43.5 -39t35.5 -39t38 -17q19 0 34 20t28 80l66 -16q-17 -90 -51.5 -123t-77.5 -33zM382 104q-37 0 -62 17t-43.5 39t-35.5 39t-38 17
q-18 0 -33.5 -19.5t-26.5 -79.5l-66 16q16 89 50 122t77 33q37 0 62 -17t43.5 -39t35.5 -39t38 -17q19 0 34 20t28 80l66 -16q-17 -90 -51.5 -123t-77.5 -33z" />
    <glyph glyph-name="notequal" unicode="&#x2260;" 
d="M501 166h-244l-66 -126l-54 29l51 97h-101v72h139l67 128h-206v72h244l66 126l54 -30l-51 -96h101v-72h-138l-68 -128h206v-72z" />
    <glyph glyph-name="lessequal" unicode="&#x2264;" 
d="M501 219v-82l-414 168v54l414 165v-78l-298 -112zM87 0v71h414v-71h-414z" />
    <glyph glyph-name="greaterequal" unicode="&#x2265;" 
d="M501 302l-414 -165v78l298 112l-298 115v82l414 -168v-54zM87 0v71h414v-71h-414z" />
    <glyph glyph-name="lozenge" unicode="&#x25ca;" 
d="M269 0l-168 340l165 340h53l168 -340l-165 -340h-53zM183 343l113 -238l110 232l-115 238z" />
    <glyph glyph-name="uniF6C3" unicode="&#xf6c3;" horiz-adv-x="500" 
d="M225 -248l-50 14l31 157h89z" />
    <glyph glyph-name="A.alt" horiz-adv-x="703" 
d="M22 418q0 126 62.5 194t187.5 68h183l227 -680h-90l-51 158h-257l-10 -33q-40 -127 -85 -203.5t-105.5 -110.5t-147.5 -34v84q42 0 76.5 11.5t65.5 42.5t59.5 87t58.5 145l151 455h-73q-88 0 -128 -45t-40 -139h-84zM346 354l-37 -117h206l-38 117l-65 210z" />
    <glyph glyph-name="Aacute.alt" horiz-adv-x="703" 
d="M22 418q0 126 62.5 194t187.5 68h183l227 -680h-90l-51 158h-257l-10 -33q-40 -127 -85 -203.5t-105.5 -110.5t-147.5 -34v84q42 0 76.5 11.5t65.5 42.5t59.5 87t58.5 145l151 455h-73q-88 0 -128 -45t-40 -139h-84zM346 354l-37 -117h206l-38 117l-65 210zM451 764h-71
l90 166l78 -36z" />
    <glyph glyph-name="Abreve.alt" horiz-adv-x="703" 
d="M22 418q0 126 62.5 194t187.5 68h183l227 -680h-90l-51 158h-257l-10 -33q-40 -127 -85 -203.5t-105.5 -110.5t-147.5 -34v84q42 0 76.5 11.5t65.5 42.5t59.5 87t58.5 145l151 455h-73q-88 0 -128 -45t-40 -139h-84zM346 354l-37 -117h206l-38 117l-65 210zM415 833
q29 0 45.5 18.5t19.5 64.5h66q-5 -78 -41 -112t-90 -34q-55 0 -90.5 34t-40.5 112h65q3 -46 20 -64.5t46 -18.5z" />
    <glyph glyph-name="Acircumflex.alt" horiz-adv-x="703" 
d="M22 418q0 126 62.5 194t187.5 68h183l227 -680h-90l-51 158h-257l-10 -33q-40 -127 -85 -203.5t-105.5 -110.5t-147.5 -34v84q42 0 76.5 11.5t65.5 42.5t59.5 87t58.5 145l151 455h-73q-88 0 -128 -45t-40 -139h-84zM346 354l-37 -117h206l-38 117l-65 210zM479 764
l-67 95l-67 -95h-65l93 161h82l93 -161h-69z" />
    <glyph glyph-name="Adieresis.alt" horiz-adv-x="703" 
d="M22 418q0 126 62.5 194t187.5 68h183l227 -680h-90l-51 158h-257l-10 -33q-40 -127 -85 -203.5t-105.5 -110.5t-147.5 -34v84q42 0 76.5 11.5t65.5 42.5t59.5 87t58.5 145l151 455h-73q-88 0 -128 -45t-40 -139h-84zM346 354l-37 -117h206l-38 117l-65 210zM361 804h-86
v86h86v-86zM552 804h-86v86h86v-86z" />
    <glyph glyph-name="Agrave.alt" horiz-adv-x="703" 
d="M22 418q0 126 62.5 194t187.5 68h183l227 -680h-90l-51 158h-257l-10 -33q-40 -127 -85 -203.5t-105.5 -110.5t-147.5 -34v84q42 0 76.5 11.5t65.5 42.5t59.5 87t58.5 145l151 455h-73q-88 0 -128 -45t-40 -139h-84zM346 354l-37 -117h206l-38 117l-65 210zM379 764
l-98 130l79 36l90 -166h-71z" />
    <glyph glyph-name="Amacron.alt" horiz-adv-x="703" 
d="M22 418q0 126 62.5 194t187.5 68h183l227 -680h-90l-51 158h-257l-10 -33q-40 -127 -85 -203.5t-105.5 -110.5t-147.5 -34v84q42 0 76.5 11.5t65.5 42.5t59.5 87t58.5 145l151 455h-73q-88 0 -128 -45t-40 -139h-84zM346 354l-37 -117h206l-38 117l-65 210zM557 857v-63
h-286v63h286z" />
    <glyph glyph-name="Aogonek.alt" horiz-adv-x="703" 
d="M22 418q0 126 62.5 194t187.5 68h183l227 -680q-42 -33 -65 -55t-31.5 -37.5t-8.5 -30.5q0 -32 37 -32q25 0 53 12l15 -63q-42 -17 -79 -17q-49 0 -75 24t-26 63q0 31 19.5 63t70.5 74l-51 157h-257l-3 -11q-43 -135 -89 -216.5t-106.5 -117.5t-149.5 -36v84
q42 0 76.5 11.5t65.5 42.5t59.5 87t58.5 145l151 455h-73q-88 0 -128 -45t-40 -139h-84zM346 354l-37 -117h206l-38 117l-65 210z" />
    <glyph glyph-name="Aring.alt" horiz-adv-x="592" 
d="M169 147q-43 -135 -88.5 -216.5t-106.5 -117.5t-150 -36v84q42 0 77 11.5t65.5 42.5t59 87t58.5 145l163 489q-27 13 -42.5 38.5t-15.5 59.5v11q0 48 31 78t83 30t83 -30t31 -78v-11q0 -34 -15.5 -59.5t-43.5 -38.5l212 -636h-89l-52 158h-257zM357 745q0 24 -15 38.5
t-39 14.5q-25 0 -40 -14.5t-15 -38.5v-11q0 -25 15 -39.5t40 -14.5q24 0 39 14.5t15 39.5v11zM234 354l-37 -117h206l-38 117l-65 210z" />
    <glyph glyph-name="Atilde.alt" horiz-adv-x="703" 
d="M22 418q0 126 62.5 194t187.5 68h183l227 -680h-90l-51 158h-257l-10 -33q-40 -127 -85 -203.5t-105.5 -110.5t-147.5 -34v84q42 0 76.5 11.5t65.5 42.5t59.5 87t58.5 145l151 455h-73q-88 0 -128 -45t-40 -139h-84zM346 354l-37 -117h206l-38 117l-65 210zM475 773
q-25 0 -42.5 12.5t-29.5 28.5t-23 28.5t-24 12.5q-10 0 -17 -14t-7 -56h-63q1 76 24.5 107t60.5 31q26 0 43 -12.5t29 -29t23 -29t24 -12.5q11 0 17.5 14t7.5 56h63q-1 -76 -25 -106.5t-61 -30.5z" />
    <glyph glyph-name="B.alt" horiz-adv-x="759" 
d="M16 418q0 126 63 194t187 68h214q98 0 144.5 -47.5t46.5 -127.5v-22q0 -44 -20 -78t-58 -54q53 -17 80.5 -55.5t27.5 -92.5v-22q0 -82 -47.5 -131.5t-148.5 -49.5h-225v602h-12q-88 0 -128 -45t-40 -139h-84zM480 600h-113v-215h113q50 0 75.5 25.5t25.5 70.5v24
q0 44 -25.5 69.5t-75.5 25.5zM505 305h-138v-226h138q53 0 79.5 27t26.5 75v24q0 46 -26.5 73t-79.5 27z" />
    <glyph glyph-name="D.alt" horiz-adv-x="811" 
d="M16 418q0 126 63 194t187 68h225q117 0 180 -70.5t63 -194.5v-149q0 -125 -63 -195.5t-180 -70.5h-211v602h-12q-88 0 -128 -45t-40 -139h-84zM489 598h-122v-517h122q155 0 155 185v149q0 183 -155 183z" />
    <glyph glyph-name="Dcaron.alt" horiz-adv-x="811" 
d="M16 418q0 126 63 194t187 68h225q117 0 180 -70.5t63 -194.5v-149q0 -125 -63 -195.5t-180 -70.5h-211v602h-12q-88 0 -128 -45t-40 -139h-84zM489 598h-122v-517h122q155 0 155 185v149q0 183 -155 183zM620 925l-93 -161h-82l-93 161h69l67 -95l67 95h65z" />
    <glyph glyph-name="E.alt" horiz-adv-x="705" 
d="M16 418q0 126 63 194t187 68h384v-82h-283v-213h253v-82h-253v-222h293v-81h-380v602h-12q-88 0 -128 -45t-40 -139h-84z" />
    <glyph glyph-name="Eacute.alt" horiz-adv-x="705" 
d="M16 418q0 126 63 194t187 68h384v-82h-283v-213h253v-82h-253v-222h293v-81h-380v602h-12q-88 0 -128 -45t-40 -139h-84zM500 764h-71l90 166l78 -36z" />
    <glyph glyph-name="Ebreve.alt" horiz-adv-x="705" 
d="M16 418q0 126 63 194t187 68h384v-82h-283v-213h253v-82h-253v-222h293v-81h-380v602h-12q-88 0 -128 -45t-40 -139h-84zM464 833q29 0 45.5 18.5t19.5 64.5h66q-5 -78 -41 -112t-90 -34q-55 0 -90.5 34t-40.5 112h65q3 -46 20 -64.5t46 -18.5z" />
    <glyph glyph-name="Ecaron.alt" horiz-adv-x="705" 
d="M16 418q0 126 63 194t187 68h384v-82h-283v-213h253v-82h-253v-222h293v-81h-380v602h-12q-88 0 -128 -45t-40 -139h-84zM598 925l-93 -161h-82l-93 161h69l67 -95l67 95h65z" />
    <glyph glyph-name="Ecircumflex.alt" horiz-adv-x="705" 
d="M16 418q0 126 63 194t187 68h384v-82h-283v-213h253v-82h-253v-222h293v-81h-380v602h-12q-88 0 -128 -45t-40 -139h-84zM529 764l-67 95l-67 -95h-65l93 161h82l93 -161h-69z" />
    <glyph glyph-name="Edieresis.alt" horiz-adv-x="705" 
d="M16 418q0 126 63 194t187 68h384v-82h-283v-213h253v-82h-253v-222h293v-81h-380v602h-12q-88 0 -128 -45t-40 -139h-84zM411 804h-86v86h86v-86zM602 804h-86v86h86v-86z" />
    <glyph glyph-name="Edotaccent.alt" horiz-adv-x="705" 
d="M16 418q0 126 63 194t187 68h384v-82h-283v-213h253v-82h-253v-222h293v-81h-380v602h-12q-88 0 -128 -45t-40 -139h-84zM510 801h-92v92h92v-92z" />
    <glyph glyph-name="Egrave.alt" horiz-adv-x="705" 
d="M16 418q0 126 63 194t187 68h384v-82h-283v-213h253v-82h-253v-222h293v-81h-380v602h-12q-88 0 -128 -45t-40 -139h-84zM428 764l-98 130l79 36l90 -166h-71z" />
    <glyph glyph-name="Emacron.alt" horiz-adv-x="705" 
d="M16 418q0 126 63 194t187 68h384v-82h-283v-213h253v-82h-253v-222h293v-81h-380v602h-12q-88 0 -128 -45t-40 -139h-84zM607 857v-63h-286v63h286z" />
    <glyph glyph-name="Eogonek.alt" horiz-adv-x="705" 
d="M16 418q0 126 63 194t187 68h384v-82h-283v-213h253v-82h-253v-222h293v-81q-42 -33 -64.5 -55t-31.5 -38t-9 -30q0 -32 37 -32q25 0 53 12l15 -63q-42 -17 -79 -17q-48 0 -74.5 24t-26.5 63q0 31 20 62.5t72 73.5h-292v602h-12q-88 0 -128 -45t-40 -139h-84z" />
    <glyph glyph-name="F.alt" horiz-adv-x="680" 
d="M16 418q0 126 63 194t187 68h378v-82h-277v-230h247v-82h-247v-286h-87v602h-12q-88 0 -128 -45t-40 -139h-84z" />
    <glyph glyph-name="G.alt" horiz-adv-x="604" 
d="M329 356h207v-348q0 -68 -21.5 -120.5t-74.5 -81.5t-148 -29v80q88 0 126 32.5t38 118.5v13q-26 -10 -59 -16.5t-73 -6.5q-80 0 -135.5 34.5t-84 97t-28.5 144.5v141q0 128 64.5 201.5t187.5 73.5q45 0 94.5 -10t98.5 -33l-28 -75q-90 37 -164 37q-82 0 -122.5 -49.5
t-40.5 -144.5v-141q0 -90 41 -143t124 -53q32 0 65.5 7t59.5 19v175h-127v77z" />
    <glyph glyph-name="Gbreve.alt" horiz-adv-x="604" 
d="M329 356h207v-348q0 -68 -21.5 -120.5t-74.5 -81.5t-148 -29v80q88 0 126 32.5t38 118.5v13q-26 -10 -59 -16.5t-73 -6.5q-80 0 -135.5 34.5t-84 97t-28.5 144.5v141q0 128 64.5 201.5t187.5 73.5q45 0 94.5 -10t98.5 -33l-28 -75q-90 37 -164 37q-82 0 -122.5 -49.5
t-40.5 -144.5v-141q0 -90 41 -143t124 -53q32 0 65.5 7t59.5 19v175h-127v77zM329 833q29 0 45.5 18.5t19.5 64.5h66q-5 -78 -41 -112t-90 -34q-55 0 -90.5 34t-40.5 112h65q3 -46 20 -64.5t46 -18.5z" />
    <glyph glyph-name="Gcircumflex.alt" horiz-adv-x="604" 
d="M329 356h207v-348q0 -68 -21.5 -120.5t-74.5 -81.5t-148 -29v80q88 0 126 32.5t38 118.5v13q-26 -10 -59 -16.5t-73 -6.5q-80 0 -135.5 34.5t-84 97t-28.5 144.5v141q0 128 64.5 201.5t187.5 73.5q45 0 94.5 -10t98.5 -33l-28 -75q-90 37 -164 37q-82 0 -122.5 -49.5
t-40.5 -144.5v-141q0 -90 41 -143t124 -53q32 0 65.5 7t59.5 19v175h-127v77zM393 764l-67 95l-67 -95h-65l93 161h82l93 -161h-69z" />
    <glyph glyph-name="Gdotaccent.alt" horiz-adv-x="604" 
d="M329 356h207v-348q0 -68 -21.5 -120.5t-74.5 -81.5t-148 -29v80q88 0 126 32.5t38 118.5v13q-26 -10 -59 -16.5t-73 -6.5q-80 0 -135.5 34.5t-84 97t-28.5 144.5v141q0 128 64.5 201.5t187.5 73.5q45 0 94.5 -10t98.5 -33l-28 -75q-90 37 -164 37q-82 0 -122.5 -49.5
t-40.5 -144.5v-141q0 -90 41 -143t124 -53q32 0 65.5 7t59.5 19v175h-127v77zM374 801h-92v92h92v-92z" />
    <glyph glyph-name="H.alt" horiz-adv-x="857" 
d="M16 418q0 126 63 194t187 68h101v-295h297v295h87v-680h-87v303h-297v-303h-87v602h-12q-88 0 -128 -45t-40 -139h-84z" />
    <glyph glyph-name="Hcircumflex.alt" horiz-adv-x="857" 
d="M16 418q0 126 63 194t187 68h101v-295h297v295h87v-680h-87v303h-297v-303h-87v602h-12q-88 0 -128 -45t-40 -139h-84zM580 764l-67 95l-67 -95h-65l93 161h82l93 -161h-69z" />
    <glyph glyph-name="J.alt" horiz-adv-x="467" 
d="M16 418q0 126 63 194t187 68h108v-456q0 -68 -21.5 -120.5t-74 -81.5t-147.5 -29v83q81 0 118.5 33t37.5 115v378h-19q-88 0 -128 -45t-40 -139h-84z" />
    <glyph glyph-name="Jcircumflex.alt" horiz-adv-x="467" 
d="M16 418q0 126 63 194t187 68h108v-456q0 -68 -21.5 -120.5t-74 -81.5t-147.5 -29v83q81 0 118.5 33t37.5 115v378h-19q-88 0 -128 -45t-40 -139h-84zM394 764l-67 95l-67 -95h-65l93 161h82l93 -161h-69z" />
    <glyph glyph-name="K.alt" horiz-adv-x="770" 
d="M16 418q0 126 63 194t187 68h101v-353q94 95 157 180t107 173h94q-45 -88 -93.5 -159.5t-110.5 -142.5l236 -378h-106l-194 321q-21 -22 -43.5 -45t-46.5 -46v-230h-87v602h-12q-88 0 -128 -45t-40 -139h-84z" />
    <glyph glyph-name="uni0136.alt" horiz-adv-x="770" 
d="M16 418q0 126 63 194t187 68h101v-353q94 95 157 180t107 173h94q-45 -88 -93.5 -159.5t-110.5 -142.5l236 -378h-106l-194 321q-21 -22 -43.5 -45t-46.5 -46v-230h-87v602h-12q-88 0 -128 -45t-40 -139h-84zM474 -248l-50 14l31 157h89z" />
    <glyph glyph-name="L.alt" horiz-adv-x="680" 
d="M16 418q0 126 63 194t187 68h101v-599h285v-81h-372v602h-12q-88 0 -128 -45t-40 -139h-84z" />
    <glyph glyph-name="Lacute.alt" horiz-adv-x="680" 
d="M16 418q0 126 63 194t187 68h101v-599h285v-81h-372v602h-12q-88 0 -128 -45t-40 -139h-84zM364 764h-71l90 166l78 -36z" />
    <glyph glyph-name="Lcaron.alt" horiz-adv-x="680" 
d="M16 418q0 126 63 194t187 68h101v-599h285v-81h-372v602h-12q-88 0 -128 -45t-40 -139h-84zM507 486h-55v194h84z" />
    <glyph glyph-name="uni013B.alt" horiz-adv-x="680" 
d="M16 418q0 126 63 194t187 68h101v-599h285v-81h-372v602h-12q-88 0 -128 -45t-40 -139h-84zM442 -248l-50 14l31 157h89z" />
    <glyph glyph-name="M.alt" horiz-adv-x="1003" 
d="M382 680l207 -504l208 504h99v-680h-85v291l11 262l-195 -473h-82l-191 475l11 -264v-291h-85v602h-12q-88 0 -128 -45t-40 -139h-84q0 126 63 194t187 68h116z" />
    <glyph glyph-name="N.alt" horiz-adv-x="864" 
d="M16 418q0 126 63 194t187 68h105q91 -130 167.5 -261.5t143.5 -274.5l-10 260v276h85v-680h-91q-70 146 -144.5 284.5t-162.5 270.5l6 -277v-278h-85v602h-12q-88 0 -128 -45t-40 -139h-84z" />
    <glyph glyph-name="Nacute.alt" horiz-adv-x="864" 
d="M16 418q0 126 63 194t187 68h105q91 -130 167.5 -261.5t143.5 -274.5l-10 260v276h85v-680h-91q-70 146 -144.5 284.5t-162.5 270.5l6 -277v-278h-85v602h-12q-88 0 -128 -45t-40 -139h-84zM555 764h-71l90 166l78 -36z" />
    <glyph glyph-name="Ncaron.alt" horiz-adv-x="864" 
d="M16 418q0 126 63 194t187 68h105q91 -130 167.5 -261.5t143.5 -274.5l-10 260v276h85v-680h-91q-70 146 -144.5 284.5t-162.5 270.5l6 -277v-278h-85v602h-12q-88 0 -128 -45t-40 -139h-84zM652 925l-93 -161h-82l-93 161h69l67 -95l67 95h65z" />
    <glyph glyph-name="uni0145.alt" horiz-adv-x="864" 
d="M16 418q0 126 63 194t187 68h105q91 -130 167.5 -261.5t143.5 -274.5l-10 260v276h85v-680h-91q-70 146 -144.5 284.5t-162.5 270.5l6 -277v-278h-85v602h-12q-88 0 -128 -45t-40 -139h-84zM493 -248l-50 14l31 157h89z" />
    <glyph glyph-name="Eng.alt" horiz-adv-x="864" 
d="M672 680h85v-672q0 -68 -21.5 -120.5t-74 -81.5t-147.5 -29v84q80 0 117.5 30t40.5 106q-70 145 -148 285.5t-165 271.5l6 -276v-278h-85v602h-12q-88 0 -128 -45t-40 -139h-84q0 126 63 194t187 68h105q89 -127 166 -256.5t145 -269.5l-10 250v276z" />
    <glyph glyph-name="Ntilde.alt" horiz-adv-x="864" 
d="M16 418q0 126 63 194t187 68h105q91 -130 167.5 -261.5t143.5 -274.5l-10 260v276h85v-680h-91q-70 146 -144.5 284.5t-162.5 270.5l6 -277v-278h-85v602h-12q-88 0 -128 -45t-40 -139h-84zM579 773q-25 0 -42.5 12.5t-29.5 28.5t-23 28.5t-24 12.5q-10 0 -17 -14t-7 -56
h-63q1 76 24.5 107t60.5 31q26 0 43 -12.5t29 -29t23 -29t24 -12.5q11 0 17.5 14t7.5 56h63q-1 -76 -25 -106.5t-61 -30.5z" />
    <glyph glyph-name="P.alt" horiz-adv-x="738" 
d="M16 418q0 126 63 194t187 68h226q98 0 149.5 -51.5t51.5 -137.5v-53q0 -86 -51.5 -138t-149.5 -52h-125v-248h-87v602h-12q-88 0 -128 -45t-40 -139h-84zM492 598h-125v-269h125q54 0 82.5 29t28.5 80v53q0 50 -28.5 78.5t-82.5 28.5z" />
    <glyph glyph-name="R.alt" horiz-adv-x="775" 
d="M367 266v-266h-87v602h-12q-88 0 -128 -45t-40 -139h-84q0 126 63 194t187 68h227q96 0 148.5 -50.5t52.5 -134.5v-43q0 -60 -27.5 -104t-78.5 -65q43 -69 80 -140t68 -143h-100q-57 136 -133 266h-136zM493 600h-126v-254h126q51 0 81 28.5t30 77.5v43q0 50 -30 77.5
t-81 27.5z" />
    <glyph glyph-name="Racute.alt" horiz-adv-x="775" 
d="M367 266v-266h-87v602h-12q-88 0 -128 -45t-40 -139h-84q0 126 63 194t187 68h227q96 0 148.5 -50.5t52.5 -134.5v-43q0 -60 -27.5 -104t-78.5 -65q43 -69 80 -140t68 -143h-100q-57 136 -133 266h-136zM493 600h-126v-254h126q51 0 81 28.5t30 77.5v43q0 50 -30 77.5
t-81 27.5zM511 764h-71l90 166l78 -36z" />
    <glyph glyph-name="Rcaron.alt" horiz-adv-x="775" 
d="M367 266v-266h-87v602h-12q-88 0 -128 -45t-40 -139h-84q0 126 63 194t187 68h227q96 0 148.5 -50.5t52.5 -134.5v-43q0 -60 -27.5 -104t-78.5 -65q43 -69 80 -140t68 -143h-100q-57 136 -133 266h-136zM493 600h-126v-254h126q51 0 81 28.5t30 77.5v43q0 50 -30 77.5
t-81 27.5zM608 925l-93 -161h-82l-93 161h69l67 -95l67 95h65z" />
    <glyph glyph-name="uni0156.alt" horiz-adv-x="775" 
d="M367 266v-266h-87v602h-12q-88 0 -128 -45t-40 -139h-84q0 126 63 194t187 68h227q96 0 148.5 -50.5t52.5 -134.5v-43q0 -60 -27.5 -104t-78.5 -65q43 -69 80 -140t68 -143h-100q-57 136 -133 266h-136zM493 600h-126v-254h126q51 0 81 28.5t30 77.5v43q0 50 -30 77.5
t-81 27.5zM471 -248l-50 14l31 157h89z" />
    <glyph glyph-name="T.alt" horiz-adv-x="618" 
d="M16 418q0 126 63 194t187 68h339v-82h-199v-598h-87v598h-51q-88 0 -128 -44t-40 -136h-84z" />
    <glyph glyph-name="Tbar.alt" horiz-adv-x="618" 
d="M536 295h-130v-295h-87v295h-129v70h129v233h-51q-88 0 -128 -44t-40 -136h-84q0 126 63 194t187 68h339v-82h-199v-233h130v-70z" />
    <glyph glyph-name="Tcaron.alt" horiz-adv-x="618" 
d="M16 418q0 126 63 194t187 68h339v-82h-199v-598h-87v598h-51q-88 0 -128 -44t-40 -136h-84zM496 925l-93 -161h-82l-93 161h69l67 -95l67 95h65z" />
    <glyph glyph-name="uni0162.alt" horiz-adv-x="618" 
d="M16 418q0 126 63 194t187 68h339v-82h-199v-598h-87v598h-51q-88 0 -128 -44t-40 -136h-84zM338 -248l-50 14l31 157h89z" />
    <glyph glyph-name="uni021A.alt" horiz-adv-x="618" 
d="M16 418q0 126 63 194t187 68h339v-82h-199v-598h-87v598h-51q-88 0 -128 -44t-40 -136h-84zM338 -248l-50 14l31 157h89z" />
    <glyph glyph-name="U.alt" horiz-adv-x="834" 
d="M16 418q0 126 63 194t187 68h102v-436q0 -82 34.5 -128t107.5 -46q74 0 108 46t34 128v436h90v-436q0 -119 -58 -186.5t-174 -67.5t-174 67.5t-58 186.5v358h-10q-88 0 -128 -45t-40 -139h-84z" />
    <glyph glyph-name="Uacute.alt" horiz-adv-x="834" 
d="M16 418q0 126 63 194t187 68h102v-436q0 -82 34.5 -128t107.5 -46q74 0 108 46t34 128v436h90v-436q0 -119 -58 -186.5t-174 -67.5t-174 67.5t-58 186.5v358h-10q-88 0 -128 -45t-40 -139h-84zM546 764h-71l90 166l78 -36z" />
    <glyph glyph-name="Ubreve.alt" horiz-adv-x="834" 
d="M16 418q0 126 63 194t187 68h102v-436q0 -82 34.5 -128t107.5 -46q74 0 108 46t34 128v436h90v-436q0 -119 -58 -186.5t-174 -67.5t-174 67.5t-58 186.5v358h-10q-88 0 -128 -45t-40 -139h-84zM510 833q29 0 45.5 18.5t19.5 64.5h66q-5 -78 -41 -112t-90 -34
q-55 0 -90.5 34t-40.5 112h65q3 -46 20 -64.5t46 -18.5z" />
    <glyph glyph-name="Ucircumflex.alt" horiz-adv-x="834" 
d="M16 418q0 126 63 194t187 68h102v-436q0 -82 34.5 -128t107.5 -46q74 0 108 46t34 128v436h90v-436q0 -119 -58 -186.5t-174 -67.5t-174 67.5t-58 186.5v358h-10q-88 0 -128 -45t-40 -139h-84zM575 764l-67 95l-67 -95h-65l93 161h82l93 -161h-69z" />
    <glyph glyph-name="Udieresis.alt" horiz-adv-x="834" 
d="M16 418q0 126 63 194t187 68h102v-436q0 -82 34.5 -128t107.5 -46q74 0 108 46t34 128v436h90v-436q0 -119 -58 -186.5t-174 -67.5t-174 67.5t-58 186.5v358h-10q-88 0 -128 -45t-40 -139h-84zM457 804h-86v86h86v-86zM648 804h-86v86h86v-86z" />
    <glyph glyph-name="Ugrave.alt" horiz-adv-x="834" 
d="M16 418q0 126 63 194t187 68h102v-436q0 -82 34.5 -128t107.5 -46q74 0 108 46t34 128v436h90v-436q0 -119 -58 -186.5t-174 -67.5t-174 67.5t-58 186.5v358h-10q-88 0 -128 -45t-40 -139h-84zM474 764l-98 130l79 36l90 -166h-71z" />
    <glyph glyph-name="Uhungarumlaut.alt" horiz-adv-x="834" 
d="M16 418q0 126 63 194t187 68h102v-436q0 -82 34.5 -128t107.5 -46q74 0 108 46t34 128v436h90v-436q0 -119 -58 -186.5t-174 -67.5t-174 67.5t-58 186.5v358h-10q-88 0 -128 -45t-40 -139h-84zM475 764h-67l82 166l67 -36zM613 764h-67l82 166l67 -36z" />
    <glyph glyph-name="Umacron.alt" horiz-adv-x="834" 
d="M16 418q0 126 63 194t187 68h102v-436q0 -82 34.5 -128t107.5 -46q74 0 108 46t34 128v436h90v-436q0 -119 -58 -186.5t-174 -67.5t-174 67.5t-58 186.5v358h-10q-88 0 -128 -45t-40 -139h-84zM653 857v-63h-286v63h286z" />
    <glyph glyph-name="Uogonek.alt" horiz-adv-x="834" 
d="M16 418q0 126 63 194t187 68h102v-436q0 -82 34.5 -128t107.5 -46q74 0 108 46t34 128v436h90v-436q0 -65 -16.5 -115t-52.5 -83q-53 -50 -82.5 -81.5t-41.5 -51.5t-12 -36q0 -32 38 -32q23 0 53 12l14 -63q-40 -17 -78 -17q-49 0 -75 24t-26 63q0 27 15 57t53 70
q-5 -1 -10.5 -1h-10.5q-116 0 -174 67.5t-58 186.5v358h-10q-88 0 -128 -45t-40 -139h-84z" />
    <glyph glyph-name="Uring.alt" horiz-adv-x="834" 
d="M16 418q0 126 63 194t187 68h102v-436q0 -82 34.5 -128t107.5 -46q74 0 108 46t34 128v436h90v-436q0 -119 -58 -186.5t-174 -67.5t-174 67.5t-58 186.5v358h-10q-88 0 -128 -45t-40 -139h-84zM624 868v-11q0 -49 -31 -79t-83 -30t-83 30t-31 79v11q0 48 31 78t83 30
t83 -30t31 -78zM564 868q0 24 -15 38.5t-39 14.5q-25 0 -40 -14.5t-15 -38.5v-11q0 -25 15 -39.5t40 -14.5q24 0 39 14.5t15 39.5v11z" />
    <glyph glyph-name="Utilde.alt" horiz-adv-x="834" 
d="M16 418q0 126 63 194t187 68h102v-436q0 -82 34.5 -128t107.5 -46q74 0 108 46t34 128v436h90v-436q0 -119 -58 -186.5t-174 -67.5t-174 67.5t-58 186.5v358h-10q-88 0 -128 -45t-40 -139h-84zM570 773q-25 0 -42.5 12.5t-29.5 28.5t-23 28.5t-24 12.5q-10 0 -17 -14
t-7 -56h-63q1 76 24.5 107t60.5 31q26 0 43 -12.5t29 -29t23 -29t24 -12.5q11 0 17.5 14t7.5 56h63q-1 -76 -25 -106.5t-61 -30.5z" />
    <glyph glyph-name="V.alt" horiz-adv-x="792" 
d="M16 418q0 126 63 194t187 68h70l108 -345l65 -218l66 219l67 216q40 129 85 206t106 111t149 34v-84q-42 0 -77.5 -11.5t-66.5 -42.5t-59.5 -87.5t-57.5 -145.5l-171 -532h-88l-193 602h-1q-88 0 -128 -45t-40 -139h-84z" />
    <glyph glyph-name="W.alt" horiz-adv-x="1087" 
d="M410 392l49 -274l157 562h81l157 -560l50 272l32 160q28 136 74.5 212t114 107.5t156.5 31.5v-84q-43 0 -83 -11.5t-74.5 -44t-63 -94t-50.5 -161.5l-111 -508h-89l-156 556l-156 -556h-89l-132 602h-9q-88 0 -128 -45t-40 -139h-84q0 126 63 194t187 68h85z" />
    <glyph glyph-name="Wacute.alt" horiz-adv-x="1087" 
d="M410 392l49 -274l157 562h81l157 -560l50 272l32 160q28 136 74.5 212t114 107.5t156.5 31.5v-84q-43 0 -83 -11.5t-74.5 -44t-63 -94t-50.5 -161.5l-111 -508h-89l-156 556l-156 -556h-89l-132 602h-9q-88 0 -128 -45t-40 -139h-84q0 126 63 194t187 68h85zM690 764h-71
l90 166l78 -36z" />
    <glyph glyph-name="Wcircumflex.alt" horiz-adv-x="1087" 
d="M410 392l49 -274l157 562h81l157 -560l50 272l32 160q28 136 74.5 212t114 107.5t156.5 31.5v-84q-43 0 -83 -11.5t-74.5 -44t-63 -94t-50.5 -161.5l-111 -508h-89l-156 556l-156 -556h-89l-132 602h-9q-88 0 -128 -45t-40 -139h-84q0 126 63 194t187 68h85zM719 764
l-67 95l-67 -95h-65l93 161h82l93 -161h-69z" />
    <glyph glyph-name="Wdieresis.alt" horiz-adv-x="1087" 
d="M410 392l49 -274l157 562h81l157 -560l50 272l32 160q28 136 74.5 212t114 107.5t156.5 31.5v-84q-43 0 -83 -11.5t-74.5 -44t-63 -94t-50.5 -161.5l-111 -508h-89l-156 556l-156 -556h-89l-132 602h-9q-88 0 -128 -45t-40 -139h-84q0 126 63 194t187 68h85zM601 804h-86
v86h86v-86zM792 804h-86v86h86v-86z" />
    <glyph glyph-name="Wgrave.alt" horiz-adv-x="1087" 
d="M410 392l49 -274l157 562h81l157 -560l50 272l32 160q28 136 74.5 212t114 107.5t156.5 31.5v-84q-43 0 -83 -11.5t-74.5 -44t-63 -94t-50.5 -161.5l-111 -508h-89l-156 556l-156 -556h-89l-132 602h-9q-88 0 -128 -45t-40 -139h-84q0 126 63 194t187 68h85zM618 764
l-98 130l79 36l90 -166h-71z" />
    <glyph glyph-name="X.alt" horiz-adv-x="726" 
d="M16 418q0 126 61.5 194t184.5 68h45l150 -259l147 259h91l-192 -332l202 -348h-98l-161 276l-157 -276h-91l202 350l-146 252q-81 -3 -117.5 -48t-36.5 -136h-84z" />
    <glyph glyph-name="Y.alt" horiz-adv-x="746" 
d="M16 418q0 126 62 194t184 68h64l163 -322l157 322h90l-208 -408v-272h-87v272l-169 330h-8q-86 0 -125 -45t-39 -139h-84z" />
    <glyph glyph-name="Yacute.alt" horiz-adv-x="746" 
d="M16 418q0 126 62 194t184 68h64l163 -322l157 322h90l-208 -408v-272h-87v272l-169 330h-8q-86 0 -125 -45t-39 -139h-84zM522 764h-71l90 166l78 -36z" />
    <glyph glyph-name="Ycircumflex.alt" horiz-adv-x="746" 
d="M16 418q0 126 62 194t184 68h64l163 -322l157 322h90l-208 -408v-272h-87v272l-169 330h-8q-86 0 -125 -45t-39 -139h-84zM550 764l-67 95l-67 -95h-65l93 161h82l93 -161h-69z" />
    <glyph glyph-name="Ydieresis.alt" horiz-adv-x="746" 
d="M16 418q0 126 62 194t184 68h64l163 -322l157 322h90l-208 -408v-272h-87v272l-169 330h-8q-86 0 -125 -45t-39 -139h-84zM433 804h-86v86h86v-86zM624 804h-86v86h86v-86z" />
    <glyph glyph-name="Ygrave.alt" horiz-adv-x="746" 
d="M16 418q0 126 62 194t184 68h64l163 -322l157 322h90l-208 -408v-272h-87v272l-169 330h-8q-86 0 -125 -45t-39 -139h-84zM450 764l-98 130l79 36l90 -166h-71z" />
    <glyph glyph-name="i.dot" horiz-adv-x="259" 
d="M175 616h-92v92h92v-92zM170 0h-82v495h82v-495z" />
    <glyph glyph-name="zero.denominator" horiz-adv-x="336" 
d="M296 207v-74q0 -68 -34 -103t-94 -35q-61 0 -94.5 35t-33.5 103v74q0 68 33.5 103t94.5 35t94.5 -35t33.5 -103zM231 207q0 41 -17 59t-46 18t-45.5 -18t-16.5 -59v-74q0 -40 16.5 -58.5t45.5 -18.5t46 18.5t17 58.5v74z" />
    <glyph glyph-name="one.denominator" horiz-adv-x="222" 
d="M21 290l91 50h56v-340h-64v269l-56 -30z" />
    <glyph glyph-name="two.denominator" horiz-adv-x="270" 
d="M240 0h-216v41q0 56 21 84.5t58 46.5l33 16q20 11 30 21.5t10 28.5v7q0 39 -52 39q-38 0 -87 -20l-15 59q53 22 103 22q62 0 89 -27.5t27 -71.5v-9q0 -40 -23 -62.5t-58 -39.5l-32 -16q-19 -9 -28 -21.5t-11 -35.5h151v-62z" />
    <glyph glyph-name="three.denominator" horiz-adv-x="274" 
d="M235 91q0 -43 -28.5 -69.5t-90.5 -26.5q-24 0 -49.5 5t-49.5 16l17 57q22 -10 42 -13.5t38 -3.5q56 0 56 38v8q0 19 -14 30.5t-43 11.5h-43v55h43q28 0 41 11t13 29v7q0 20 -14.5 29t-37.5 9q-16 0 -33.5 -3.5t-39.5 -13.5l-19 58q24 11 48 15.5t46 4.5q60 0 87.5 -27
t27.5 -68v-7q0 -49 -47 -72q50 -21 50 -72v-8z" />
    <glyph glyph-name="four.denominator" horiz-adv-x="267" 
d="M256 77h-37v-77h-59v77h-148v46q38 58 69 110.5t51 106.5h68q-20 -52 -48.5 -102t-65.5 -104h74v48h59v-48h37v-57z" />
    <glyph glyph-name="five.denominator" horiz-adv-x="274" 
d="M37 174l10 166h187v-59h-132l-5 -72q18 6 41 6q47 0 78 -25t31 -75v-15q0 -47 -30.5 -76t-92.5 -29q-25 0 -50 4.5t-51 16.5l19 58q23 -10 42.5 -14t37.5 -4q28 0 43.5 10t15.5 34v15q0 20 -13.5 32t-41.5 12q-14 0 -28 -3.5t-29 -9.5z" />
    <glyph glyph-name="six.denominator" horiz-adv-x="304" 
d="M276 98q0 -46 -30.5 -74.5t-83.5 -28.5q-59 0 -90 36.5t-31 102.5v73q0 71 34.5 104.5t94.5 33.5q23 0 46 -5t49 -17l-19 -56q-22 11 -40 14t-34 3q-32 0 -50.5 -17.5t-18.5 -59.5v-19q34 31 79 31q42 0 68 -28t26 -75v-18zM167 160q-16 0 -32 -7t-32 -20q0 -78 59 -78
q51 0 51 43v18q0 20 -12 32t-34 12z" />
    <glyph glyph-name="seven.denominator" horiz-adv-x="239" 
d="M225 284q-34 -71 -58.5 -142t-36.5 -142h-67q13 71 37 141.5t58 137.5h-149v61h216v-56z" />
    <glyph glyph-name="eight.denominator" horiz-adv-x="307" 
d="M271 91q0 -42 -29.5 -69t-88.5 -27t-86.5 26t-27.5 64q0 24 12 44t40 39q-44 30 -44 83q0 40 27.5 67t79.5 27q56 0 83 -27t27 -64q0 -44 -46 -76q26 -15 39.5 -36t13.5 -51zM147 206l28 -10q15 15 20.5 28.5t5.5 24.5q0 17 -11.5 28t-34.5 11q-21 0 -33.5 -10.5
t-12.5 -27.5q0 -32 38 -44zM101 92q0 -19 14 -29.5t39 -10.5q24 0 39.5 8.5t15.5 30.5q0 15 -10 26t-35 20l-31 10q-17 -14 -24.5 -27.5t-7.5 -27.5z" />
    <glyph glyph-name="nine.denominator" horiz-adv-x="304" 
d="M263 132q0 -70 -34.5 -103.5t-95.5 -33.5q-22 0 -45 4.5t-50 16.5l20 57q21 -11 39.5 -14.5t33.5 -3.5q32 0 51 17.5t19 59.5v20q-17 -15 -36.5 -23t-42.5 -8q-43 0 -68.5 27.5t-25.5 74.5v18q0 46 30.5 75t83.5 29q59 0 90 -37t31 -103v-73zM91 223q0 -20 12 -32t34 -12
q17 0 32.5 7t31.5 20q0 78 -59 78q-51 0 -51 -43v-18z" />
    <glyph glyph-name="zero.numerator" horiz-adv-x="336" 
d="M296 547v-74q0 -68 -34 -103t-94 -35q-61 0 -94.5 35t-33.5 103v74q0 68 33.5 103t94.5 35t94.5 -35t33.5 -103zM231 547q0 41 -17 59t-46 18t-45.5 -18t-16.5 -59v-74q0 -40 16.5 -58.5t45.5 -18.5t46 18.5t17 58.5v74z" />
    <glyph glyph-name="one.numerator" horiz-adv-x="222" 
d="M21 630l91 50h56v-340h-64v269l-56 -30z" />
    <glyph glyph-name="two.numerator" horiz-adv-x="270" 
d="M240 340h-216v41q0 56 21 84.5t58 46.5l33 16q20 11 30 21.5t10 28.5v7q0 39 -52 39q-38 0 -87 -20l-15 59q53 22 103 22q62 0 89 -27.5t27 -71.5v-9q0 -40 -23 -62.5t-58 -39.5l-32 -16q-19 -9 -28 -21.5t-11 -35.5h151v-62z" />
    <glyph glyph-name="three.numerator" horiz-adv-x="274" 
d="M235 431q0 -43 -28.5 -69.5t-90.5 -26.5q-24 0 -49.5 5t-49.5 16l17 57q22 -10 42 -13.5t38 -3.5q56 0 56 38v8q0 19 -14 30.5t-43 11.5h-43v55h43q28 0 41 11t13 29v7q0 20 -14.5 29t-37.5 9q-16 0 -33.5 -3.5t-39.5 -13.5l-19 58q24 11 48 15.5t46 4.5q60 0 87.5 -27
t27.5 -68v-7q0 -49 -47 -72q50 -21 50 -72v-8z" />
    <glyph glyph-name="four.numerator" horiz-adv-x="267" 
d="M256 417h-37v-77h-59v77h-148v46q38 58 69 110.5t51 106.5h68q-20 -52 -48.5 -102t-65.5 -104h74v48h59v-48h37v-57z" />
    <glyph glyph-name="five.numerator" horiz-adv-x="274" 
d="M37 514l10 166h187v-59h-132l-5 -72q18 6 41 6q47 0 78 -25t31 -75v-15q0 -47 -30.5 -76t-92.5 -29q-25 0 -50 4.5t-51 16.5l19 58q23 -10 42.5 -14t37.5 -4q28 0 43.5 10t15.5 34v15q0 20 -13.5 32t-41.5 12q-14 0 -28 -3.5t-29 -9.5z" />
    <glyph glyph-name="six.numerator" horiz-adv-x="304" 
d="M276 438q0 -46 -30.5 -74.5t-83.5 -28.5q-59 0 -90 36.5t-31 102.5v73q0 71 34.5 104.5t94.5 33.5q23 0 46 -5t49 -17l-19 -56q-22 11 -40 14t-34 3q-32 0 -50.5 -17.5t-18.5 -59.5v-19q34 31 79 31q42 0 68 -28t26 -75v-18zM167 500q-16 0 -32 -7t-32 -20q0 -78 59 -78
q51 0 51 43v18q0 20 -12 32t-34 12z" />
    <glyph glyph-name="seven.numerator" horiz-adv-x="239" 
d="M225 624q-34 -71 -58.5 -142t-36.5 -142h-67q13 71 37 141.5t58 137.5h-149v61h216v-56z" />
    <glyph glyph-name="eight.numerator" horiz-adv-x="307" 
d="M271 431q0 -42 -29.5 -69t-88.5 -27t-86.5 26t-27.5 64q0 24 12 44t40 39q-44 30 -44 83q0 40 27.5 67t79.5 27q56 0 83 -27t27 -64q0 -44 -46 -76q26 -15 39.5 -36t13.5 -51zM147 546l28 -10q15 15 20.5 28.5t5.5 24.5q0 17 -11.5 28t-34.5 11q-21 0 -33.5 -10.5
t-12.5 -27.5q0 -32 38 -44zM101 432q0 -19 14 -29.5t39 -10.5q24 0 39.5 8.5t15.5 30.5q0 15 -10 26t-35 20l-31 10q-17 -14 -24.5 -27.5t-7.5 -27.5z" />
    <glyph glyph-name="nine.numerator" horiz-adv-x="304" 
d="M263 472q0 -70 -34.5 -103.5t-95.5 -33.5q-22 0 -45 4.5t-50 16.5l20 57q21 -11 39.5 -14.5t33.5 -3.5q32 0 51 17.5t19 59.5v20q-17 -15 -36.5 -23t-42.5 -8q-43 0 -68.5 27.5t-25.5 74.5v18q0 46 30.5 75t83.5 29q59 0 90 -37t31 -103v-73zM91 563q0 -20 12 -32t34 -12
q17 0 32.5 7t31.5 20q0 78 -59 78q-51 0 -51 -43v-18z" />
    <glyph glyph-name="zero.posf" horiz-adv-x="568" 
d="M508 276v-56q0 -108 -58 -169t-166 -61q-109 0 -166.5 61t-57.5 169v56q0 105 57.5 167t166.5 62q108 0 166 -62t58 -167zM422 276q0 74 -34.5 113.5t-103.5 39.5t-103.5 -39.5t-34.5 -113.5v-56q0 -155 138 -155t138 155v56z" />
    <glyph glyph-name="one.posf" horiz-adv-x="348" 
d="M19 401l162 94h79v-495h-85v403l-118 -68z" />
    <glyph glyph-name="two.posf" horiz-adv-x="470" 
d="M412 0h-358v66q0 74 28.5 118.5t93.5 66.5l71 24q41 14 60.5 31.5t19.5 42.5v10q0 36 -27 52.5t-74 16.5q-34 0 -68 -7t-76 -26l-28 70q46 21 89 30.5t86 9.5q97 0 139.5 -41t42.5 -103v-10q0 -59 -38 -92.5t-91 -51.5l-71 -24q-42 -14 -57 -40.5t-15 -66.5h273v-76z" />
    <glyph glyph-name="three.posf" horiz-adv-x="469" 
d="M414 -8q0 -82 -51 -134.5t-164 -52.5q-45 0 -93.5 10.5t-100.5 33.5l26 72q50 -20 89.5 -29t76.5 -9q62 0 96.5 26t34.5 85v16q0 50 -29 80t-89 30h-100v76h100q57 0 84 28.5t27 77.5v14q0 59 -32 84.5t-89 25.5q-35 0 -72 -8.5t-84 -28.5l-28 73q50 23 96.5 33t89.5 10
q108 0 157 -52t49 -135v-14q0 -50 -24 -87.5t-65 -58.5q44 -20 69.5 -58.5t25.5 -91.5v-16z" />
    <glyph glyph-name="four.posf" horiz-adv-x="488" 
d="M470 0h-74v-185h-83v185h-292v66q82 114 143 217.5t101 211.5h92q-40 -106 -99 -206.5t-139 -212.5h194v103h83v-103h74v-76z" />
    <glyph glyph-name="five.posf" horiz-adv-x="487" 
d="M59 169l20 326h338v-80h-261l-12 -195q44 15 95 15q94 0 150 -50t56 -148v-30q0 -89 -52 -145.5t-167 -56.5q-45 0 -93.5 10.5t-100.5 33.5l27 72q49 -21 89 -29.5t77 -8.5q62 0 97 28.5t35 95.5v30q0 55 -31.5 88t-95.5 33q-30 0 -59 -7.5t-61 -21.5z" />
    <glyph glyph-name="six.posf" horiz-adv-x="552" 
d="M500 193q0 -60 -25.5 -105.5t-73 -71.5t-113.5 -26q-108 0 -165.5 72.5t-57.5 204.5v148q0 140 63.5 207.5t173.5 67.5q39 0 84 -9.5t95 -32.5l-31 -73q-43 20 -79.5 28t-65.5 8q-72 0 -114.5 -44t-42.5 -152v-58q35 32 76 50t87 18q88 0 138.5 -55.5t50.5 -146.5v-30z
M148 267q0 -100 36 -149.5t104 -49.5q61 0 94.5 33.5t33.5 91.5v30q0 57 -30 91t-85 34q-42 0 -80.5 -18t-72.5 -50v-13z" />
    <glyph glyph-name="seven.posf" horiz-adv-x="452" 
d="M428 425q-75 -153 -127 -305.5t-79 -304.5h-89q27 150 78 300t124 300h-314v80h407v-70z" />
    <glyph glyph-name="eight.posf" horiz-adv-x="525" 
d="M480 179q0 -53 -23.5 -96t-72.5 -68t-126 -25q-74 0 -121 24t-69 63.5t-22 88.5q0 53 26 96.5t84 80.5q-46 26 -71 66t-25 98q0 48 22 89.5t67 67.5t112 26q69 0 114.5 -24t67.5 -64t22 -90q0 -49 -22.5 -89t-74.5 -75q55 -27 83.5 -67t28.5 -102zM247 393l55 -19
q45 35 61.5 66t16.5 64q0 50 -29 80t-88 30q-52 0 -85 -27t-33 -80q0 -42 23.5 -68.5t78.5 -45.5zM131 177q0 -51 32.5 -81.5t97.5 -30.5q63 0 98.5 28.5t35.5 81.5q0 46 -25.5 71.5t-89.5 47.5l-58 20q-51 -37 -71 -69.5t-20 -67.5z" />
    <glyph glyph-name="nine.posf" horiz-adv-x="548" 
d="M484 79q0 -139 -63 -206.5t-174 -67.5q-39 0 -83.5 9t-94.5 32l30 73q44 -19 80.5 -27.5t65.5 -8.5q71 0 114 44t43 152v59q-36 -31 -77 -50t-87 -19q-88 0 -138 55.5t-50 146.5v30q0 59 25.5 105t73 72.5t113.5 26.5q107 0 164.5 -73t57.5 -205v-148zM133 271
q0 -57 30.5 -91t85.5 -34q42 0 80.5 18.5t72.5 50.5v12q0 101 -36.5 150t-104.5 49q-60 0 -94 -35t-34 -90v-30z" />
    <glyph glyph-name="zero.tlf" horiz-adv-x="529" 
d="M494 415v-149q0 -136 -61 -206t-170 -70t-169.5 70t-60.5 206v149q0 135 61 205t169 70q109 0 170 -70t61 -205zM406 415q0 104 -37.5 150t-105.5 46q-67 0 -104.5 -46t-37.5 -150v-149q0 -103 37.5 -150.5t104.5 -47.5q68 0 105.5 47.5t37.5 150.5v149z" />
    <glyph glyph-name="one.tlf" horiz-adv-x="529" 
d="M71 572l185 108h79v-600h121v-80h-363v80h156v503l-139 -79z" />
    <glyph glyph-name="two.tlf" horiz-adv-x="529" 
d="M454 0h-388v66q0 75 18.5 126t50 84.5t70.5 53.5l65 33q46 24 73.5 50t27.5 75v17q0 56 -31.5 81t-92.5 25q-34 0 -72 -8.5t-84 -28.5l-28 73q50 23 96.5 33t89.5 10q111 0 159 -51.5t48 -133.5v-17q0 -54 -20.5 -90t-54 -60.5t-71.5 -43.5l-65 -34q-47 -25 -69.5 -69
t-24.5 -112h303v-79z" />
    <glyph glyph-name="three.tlf" horiz-adv-x="529" 
d="M448 177q0 -82 -51 -134.5t-164 -52.5q-45 0 -93.5 10.5t-100.5 33.5l26 72q50 -20 89.5 -29t76.5 -9q62 0 96.5 26t34.5 85v16q0 50 -29 80t-89 30h-100v76h100q57 0 84 28.5t27 77.5v14q0 59 -32 84.5t-89 25.5q-35 0 -72 -8.5t-84 -28.5l-28 73q50 23 96.5 33t89.5 10
q108 0 157 -52t49 -135v-14q0 -50 -24 -87.5t-65 -58.5q44 -20 69.5 -58.5t25.5 -91.5v-16z" />
    <glyph glyph-name="four.tlf" horiz-adv-x="529" 
d="M496 163h-75v-163h-82v163h-292v67q77 117 139.5 228t103.5 222h92q-42 -109 -101.5 -217t-136.5 -223h195v124h82v-124h75v-77z" />
    <glyph glyph-name="five.tlf" horiz-adv-x="529" 
d="M78 354l20 326h338v-80h-261l-12 -195q44 15 95 15q94 0 150 -50t56 -148v-30q0 -89 -52 -145.5t-167 -56.5q-45 0 -93.5 10.5t-100.5 33.5l27 72q49 -21 89 -29.5t77 -8.5q62 0 97 28.5t35 95.5v30q0 55 -31.5 88t-95.5 33q-30 0 -59 -7.5t-61 -21.5z" />
    <glyph glyph-name="six.tlf" horiz-adv-x="529" 
d="M492 193q0 -60 -25.5 -105.5t-73 -71.5t-113.5 -26q-108 0 -165.5 72.5t-57.5 204.5v148q0 140 63.5 207.5t173.5 67.5q39 0 84 -9.5t95 -32.5l-31 -73q-43 20 -79.5 28t-65.5 8q-72 0 -114.5 -44t-42.5 -152v-58q35 32 76 50t87 18q88 0 138.5 -55.5t50.5 -146.5v-30z
M140 267q0 -100 36 -149.5t104 -49.5q61 0 94.5 33.5t33.5 91.5v30q0 57 -30 91t-85 34q-42 0 -80.5 -18t-72.5 -50v-13z" />
    <glyph glyph-name="seven.tlf" horiz-adv-x="529" 
d="M468 610q-75 -153 -127 -305.5t-79 -304.5h-89q27 150 78 300t124 300h-314v80h407v-70z" />
    <glyph glyph-name="eight.tlf" horiz-adv-x="529" 
d="M482 179q0 -53 -23.5 -96t-72.5 -68t-126 -25q-74 0 -121 24t-69 63.5t-22 88.5q0 53 26 96.5t84 80.5q-46 26 -71 66t-25 98q0 48 22 89.5t67 67.5t112 26q69 0 114.5 -24t67.5 -64t22 -90q0 -49 -22.5 -89t-74.5 -75q55 -27 83.5 -67t28.5 -102zM249 393l55 -19
q45 35 61.5 66t16.5 64q0 50 -29 80t-88 30q-52 0 -85 -27t-33 -80q0 -42 23.5 -68.5t78.5 -45.5zM133 177q0 -51 32.5 -81.5t97.5 -30.5q63 0 98.5 28.5t35.5 81.5q0 46 -25.5 71.5t-89.5 47.5l-58 20q-51 -37 -71 -69.5t-20 -67.5z" />
    <glyph glyph-name="nine.tlf" horiz-adv-x="529" 
d="M472 264q0 -139 -63 -206.5t-174 -67.5q-39 0 -83.5 9t-94.5 32l30 73q44 -19 80.5 -27.5t65.5 -8.5q71 0 114 44t43 152v59q-36 -31 -77 -50t-87 -19q-88 0 -138 55.5t-50 146.5v30q0 59 25.5 105t73 72.5t113.5 26.5q107 0 164.5 -73t57.5 -205v-148zM121 456
q0 -57 30.5 -91t85.5 -34q42 0 80.5 18.5t72.5 50.5v12q0 101 -36.5 150t-104.5 49q-60 0 -94 -35t-34 -90v-30z" />
    <glyph glyph-name="uni2155" horiz-adv-x="629" 
d="M21 630l91 50h56v-340h-64v269l-56 -30zM435 680h71l-348 -680h-71zM391 174l10 166h187v-59h-132l-5 -72q18 6 41 6q47 0 78 -25t31 -75v-15q0 -47 -30.5 -76t-92.5 -29q-25 0 -50 4.5t-51 16.5l19 58q23 -10 42.5 -14t37.5 -4q28 0 43.5 10t15.5 34v15q0 20 -13.5 32
t-41.5 12q-14 0 -28 -3.5t-29 -9.5z" />
    <glyph glyph-name="uni2156" horiz-adv-x="676" 
d="M240 340h-216v41q0 56 21 84.5t58 46.5l33 16q20 11 30 21.5t10 28.5v7q0 39 -52 39q-38 0 -87 -20l-15 59q53 22 103 22q62 0 89 -27.5t27 -71.5v-9q0 -40 -23 -62.5t-58 -39.5l-32 -16q-19 -9 -28 -21.5t-11 -35.5h151v-62zM483 680h71l-348 -680h-71zM439 174l10 166
h187v-59h-132l-5 -72q18 6 41 6q47 0 78 -25t31 -75v-15q0 -47 -30.5 -76t-92.5 -29q-25 0 -50 4.5t-51 16.5l19 58q23 -10 42.5 -14t37.5 -4q28 0 43.5 10t15.5 34v15q0 20 -13.5 32t-41.5 12q-14 0 -28 -3.5t-29 -9.5z" />
    <glyph glyph-name="uni2157" horiz-adv-x="662" 
d="M235 431q0 -43 -28.5 -69.5t-90.5 -26.5q-24 0 -49.5 5t-49.5 16l17 57q22 -10 42 -13.5t38 -3.5q56 0 56 38v8q0 19 -14 30.5t-43 11.5h-43v55h43q28 0 41 11t13 29v7q0 20 -14.5 29t-37.5 9q-16 0 -33.5 -3.5t-39.5 -13.5l-19 58q24 11 48 15.5t46 4.5q60 0 87.5 -27
t27.5 -68v-7q0 -49 -47 -72q50 -21 50 -72v-8zM468 680h71l-348 -680h-71zM424 174l10 166h187v-59h-132l-5 -72q18 6 41 6q47 0 78 -25t31 -75v-15q0 -47 -30.5 -76t-92.5 -29q-25 0 -50 4.5t-51 16.5l19 58q23 -10 42.5 -14t37.5 -4q28 0 43.5 10t15.5 34v15
q0 20 -13.5 32t-41.5 12q-14 0 -28 -3.5t-29 -9.5z" />
    <glyph glyph-name="uni2158" horiz-adv-x="674" 
d="M256 417h-37v-77h-59v77h-148v46q38 58 69 110.5t51 106.5h68q-20 -52 -48.5 -102t-65.5 -104h74v48h59v-48h37v-57zM481 680h71l-348 -680h-71zM437 174l10 166h187v-59h-132l-5 -72q18 6 41 6q47 0 78 -25t31 -75v-15q0 -47 -30.5 -76t-92.5 -29q-25 0 -50 4.5
t-51 16.5l19 58q23 -10 42.5 -14t37.5 -4q28 0 43.5 10t15.5 34v15q0 20 -13.5 32t-41.5 12q-14 0 -28 -3.5t-29 -9.5z" />
    <glyph glyph-name="uni2159" horiz-adv-x="648" 
d="M21 630l91 50h56v-340h-64v269l-56 -30zM435 680h71l-348 -680h-71zM620 98q0 -46 -30.5 -74.5t-83.5 -28.5q-59 0 -90 36.5t-31 102.5v73q0 71 34.5 104.5t94.5 33.5q23 0 46 -5t49 -17l-19 -56q-22 11 -40 14t-34 3q-32 0 -50.5 -17.5t-18.5 -59.5v-19q34 31 79 31
q42 0 68 -28t26 -75v-18zM511 160q-16 0 -32 -7t-32 -20q0 -78 59 -78q51 0 51 43v18q0 20 -12 32t-34 12z" />
    <glyph glyph-name="uni215A" horiz-adv-x="681" 
d="M37 514l10 166h187v-59h-132l-5 -72q18 6 41 6q47 0 78 -25t31 -75v-15q0 -47 -30.5 -76t-92.5 -29q-25 0 -50 4.5t-51 16.5l19 58q23 -10 42.5 -14t37.5 -4q28 0 43.5 10t15.5 34v15q0 20 -13.5 32t-41.5 12q-14 0 -28 -3.5t-29 -9.5zM468 680h71l-348 -680h-71zM652 98
q0 -46 -30.5 -74.5t-83.5 -28.5q-59 0 -90 36.5t-31 102.5v73q0 71 34.5 104.5t94.5 33.5q23 0 46 -5t49 -17l-19 -56q-22 11 -40 14t-34 3q-32 0 -50.5 -17.5t-18.5 -59.5v-19q34 31 79 31q42 0 68 -28t26 -75v-18zM543 160q-16 0 -32 -7t-32 -20q0 -78 59 -78q51 0 51 43
v18q0 20 -12 32t-34 12z" />
    <glyph glyph-name="uni2150" horiz-adv-x="631" 
d="M21 630l91 50h56v-340h-64v269l-56 -30zM435 680h71l-348 -680h-71zM617 284q-34 -71 -58.5 -142t-36.5 -142h-67q13 71 37 141.5t58 137.5h-149v61h216v-56z" />
    <glyph glyph-name="two_fraction_seven" horiz-adv-x="679" 
d="M240 340h-216v41q0 56 21 84.5t58 46.5l33 16q20 11 30 21.5t10 28.5v7q0 39 -52 39q-38 0 -87 -20l-15 59q53 22 103 22q62 0 89 -27.5t27 -71.5v-9q0 -40 -23 -62.5t-58 -39.5l-32 -16q-19 -9 -28 -21.5t-11 -35.5h151v-62zM483 680h71l-348 -680h-71zM665 284
q-34 -71 -58.5 -142t-36.5 -142h-67q13 71 37 141.5t58 137.5h-149v61h216v-56z" />
    <glyph glyph-name="three_fraction_seven" horiz-adv-x="664" 
d="M235 431q0 -43 -28.5 -69.5t-90.5 -26.5q-24 0 -49.5 5t-49.5 16l17 57q22 -10 42 -13.5t38 -3.5q56 0 56 38v8q0 19 -14 30.5t-43 11.5h-43v55h43q28 0 41 11t13 29v7q0 20 -14.5 29t-37.5 9q-16 0 -33.5 -3.5t-39.5 -13.5l-19 58q24 11 48 15.5t46 4.5q60 0 87.5 -27
t27.5 -68v-7q0 -49 -47 -72q50 -21 50 -72v-8zM468 680h71l-348 -680h-71zM650 284q-34 -71 -58.5 -142t-36.5 -142h-67q13 71 37 141.5t58 137.5h-149v61h216v-56z" />
    <glyph glyph-name="four_fraction_seven" horiz-adv-x="677" 
d="M256 417h-37v-77h-59v77h-148v46q38 58 69 110.5t51 106.5h68q-20 -52 -48.5 -102t-65.5 -104h74v48h59v-48h37v-57zM481 680h71l-348 -680h-71zM663 284q-34 -71 -58.5 -142t-36.5 -142h-67q13 71 37 141.5t58 137.5h-149v61h216v-56z" />
    <glyph glyph-name="five_fraction_seven" horiz-adv-x="664" 
d="M37 514l10 166h187v-59h-132l-5 -72q18 6 41 6q47 0 78 -25t31 -75v-15q0 -47 -30.5 -76t-92.5 -29q-25 0 -50 4.5t-51 16.5l19 58q23 -10 42.5 -14t37.5 -4q28 0 43.5 10t15.5 34v15q0 20 -13.5 32t-41.5 12q-14 0 -28 -3.5t-29 -9.5zM468 680h71l-348 -680h-71z
M650 284q-34 -71 -58.5 -142t-36.5 -142h-67q13 71 37 141.5t58 137.5h-149v61h216v-56z" />
    <glyph glyph-name="six_fraction_seven" horiz-adv-x="694" 
d="M276 438q0 -46 -30.5 -74.5t-83.5 -28.5q-59 0 -90 36.5t-31 102.5v73q0 71 34.5 104.5t94.5 33.5q23 0 46 -5t49 -17l-19 -56q-22 11 -40 14t-34 3q-32 0 -50.5 -17.5t-18.5 -59.5v-19q34 31 79 31q42 0 68 -28t26 -75v-18zM167 500q-16 0 -32 -7t-32 -20q0 -78 59 -78
q51 0 51 43v18q0 20 -12 32t-34 12zM498 680h71l-348 -680h-71zM680 284q-34 -71 -58.5 -142t-36.5 -142h-67q13 71 37 141.5t58 137.5h-149v61h216v-56z" />
    <glyph glyph-name="uni2151" horiz-adv-x="656" 
d="M21 630l91 50h56v-340h-64v269l-56 -30zM435 680h71l-348 -680h-71zM615 132q0 -70 -34.5 -103.5t-95.5 -33.5q-22 0 -45 4.5t-50 16.5l20 57q21 -11 39.5 -14.5t33.5 -3.5q32 0 51 17.5t19 59.5v20q-17 -15 -36.5 -23t-42.5 -8q-43 0 -68.5 27.5t-25.5 74.5v18
q0 46 30.5 75t83.5 29q59 0 90 -37t31 -103v-73zM443 223q0 -20 12 -32t34 -12q17 0 32.5 7t31.5 20q0 78 -59 78q-51 0 -51 -43v-18z" />
    <glyph glyph-name="two_fraction_nine" horiz-adv-x="704" 
d="M240 340h-216v41q0 56 21 84.5t58 46.5l33 16q20 11 30 21.5t10 28.5v7q0 39 -52 39q-38 0 -87 -20l-15 59q53 22 103 22q62 0 89 -27.5t27 -71.5v-9q0 -40 -23 -62.5t-58 -39.5l-32 -16q-19 -9 -28 -21.5t-11 -35.5h151v-62zM483 680h71l-348 -680h-71zM663 132
q0 -70 -34.5 -103.5t-95.5 -33.5q-22 0 -45 4.5t-50 16.5l20 57q21 -11 39.5 -14.5t33.5 -3.5q32 0 51 17.5t19 59.5v20q-17 -15 -36.5 -23t-42.5 -8q-43 0 -68.5 27.5t-25.5 74.5v18q0 46 30.5 75t83.5 29q59 0 90 -37t31 -103v-73zM491 223q0 -20 12 -32t34 -12
q17 0 32.5 7t31.5 20q0 78 -59 78q-51 0 -51 -43v-18z" />
    <glyph glyph-name="four_fraction_nine" horiz-adv-x="702" 
d="M256 417h-37v-77h-59v77h-148v46q38 58 69 110.5t51 106.5h68q-20 -52 -48.5 -102t-65.5 -104h74v48h59v-48h37v-57zM481 680h71l-348 -680h-71zM661 132q0 -70 -34.5 -103.5t-95.5 -33.5q-22 0 -45 4.5t-50 16.5l20 57q21 -11 39.5 -14.5t33.5 -3.5q32 0 51 17.5
t19 59.5v20q-17 -15 -36.5 -23t-42.5 -8q-43 0 -68.5 27.5t-25.5 74.5v18q0 46 30.5 75t83.5 29q59 0 90 -37t31 -103v-73zM489 223q0 -20 12 -32t34 -12q17 0 32.5 7t31.5 20q0 78 -59 78q-51 0 -51 -43v-18z" />
    <glyph glyph-name="five_fraction_nine" horiz-adv-x="689" 
d="M37 514l10 166h187v-59h-132l-5 -72q18 6 41 6q47 0 78 -25t31 -75v-15q0 -47 -30.5 -76t-92.5 -29q-25 0 -50 4.5t-51 16.5l19 58q23 -10 42.5 -14t37.5 -4q28 0 43.5 10t15.5 34v15q0 20 -13.5 32t-41.5 12q-14 0 -28 -3.5t-29 -9.5zM468 680h71l-348 -680h-71z
M648 132q0 -70 -34.5 -103.5t-95.5 -33.5q-22 0 -45 4.5t-50 16.5l20 57q21 -11 39.5 -14.5t33.5 -3.5q32 0 51 17.5t19 59.5v20q-17 -15 -36.5 -23t-42.5 -8q-43 0 -68.5 27.5t-25.5 74.5v18q0 46 30.5 75t83.5 29q59 0 90 -37t31 -103v-73zM476 223q0 -20 12 -32t34 -12
q17 0 32.5 7t31.5 20q0 78 -59 78q-51 0 -51 -43v-18z" />
    <glyph glyph-name="seven_fraction_nine" horiz-adv-x="648" 
d="M225 624q-34 -71 -58.5 -142t-36.5 -142h-67q13 71 37 141.5t58 137.5h-149v61h216v-56zM427 680h71l-348 -680h-71zM607 132q0 -70 -34.5 -103.5t-95.5 -33.5q-22 0 -45 4.5t-50 16.5l20 57q21 -11 39.5 -14.5t33.5 -3.5q32 0 51 17.5t19 59.5v20q-17 -15 -36.5 -23
t-42.5 -8q-43 0 -68.5 27.5t-25.5 74.5v18q0 46 30.5 75t83.5 29q59 0 90 -37t31 -103v-73zM435 223q0 -20 12 -32t34 -12q17 0 32.5 7t31.5 20q0 78 -59 78q-51 0 -51 -43v-18z" />
    <glyph glyph-name="eight_fraction_nine" horiz-adv-x="722" 
d="M271 431q0 -42 -29.5 -69t-88.5 -27t-86.5 26t-27.5 64q0 24 12 44t40 39q-44 30 -44 83q0 40 27.5 67t79.5 27q56 0 83 -27t27 -64q0 -44 -46 -76q26 -15 39.5 -36t13.5 -51zM147 546l28 -10q15 15 20.5 28.5t5.5 24.5q0 17 -11.5 28t-34.5 11q-21 0 -33.5 -10.5
t-12.5 -27.5q0 -32 38 -44zM101 432q0 -19 14 -29.5t39 -10.5q24 0 39.5 8.5t15.5 30.5q0 15 -10 26t-35 20l-31 10q-17 -14 -24.5 -27.5t-7.5 -27.5zM501 680h71l-348 -680h-71zM681 132q0 -70 -34.5 -103.5t-95.5 -33.5q-22 0 -45 4.5t-50 16.5l20 57q21 -11 39.5 -14.5
t33.5 -3.5q32 0 51 17.5t19 59.5v20q-17 -15 -36.5 -23t-42.5 -8q-43 0 -68.5 27.5t-25.5 74.5v18q0 46 30.5 75t83.5 29q59 0 90 -37t31 -103v-73zM509 223q0 -20 12 -32t34 -12q17 0 32.5 7t31.5 20q0 78 -59 78q-51 0 -51 -43v-18z" />
    <glyph glyph-name="exclamdown.case" horiz-adv-x="280" 
d="M94 680h92v-92h-92v92zM107 497h66l7 -247v-250h-82v250z" />
    <glyph glyph-name="questiondown.case" horiz-adv-x="434" 
d="M185 680h92v-92h-92v92zM235 66q35 0 74 9t85 30l28 -72q-50 -23 -98.5 -33t-91.5 -10q-104 0 -152 48.5t-48 120.5v18q0 55 18 93.5t55 71.5l34 31q32 30 41.5 52t9.5 53v19h84v-22q0 -34 -7 -59t-24 -47t-46 -49l-34 -31q-24 -22 -35 -47t-11 -61v-18q0 -44 30 -70.5
t88 -26.5z" />
    <glyph glyph-name="parenleft.case" horiz-adv-x="315" 
d="M60 359q0 121 48 230.5t149 202.5l55 -56q-86 -85 -126.5 -177.5t-40.5 -199.5v-37q0 -108 40.5 -200.5t126.5 -176.5l-55 -56q-101 93 -149 202.5t-48 230.5v37z" />
    <glyph glyph-name="parenright.case" horiz-adv-x="315" 
d="M255 321q0 -121 -48 -230.5t-149 -202.5l-56 56q87 84 127.5 176.5t40.5 200.5v37q0 107 -40.5 199.5t-127.5 177.5l56 56q101 -93 149 -202.5t48 -230.5v-37z" />
    <glyph glyph-name="braceleft.case" horiz-adv-x="377" 
d="M374 -30v-72h-89q-96 0 -132 52.5t-18 140.5l20 98q11 51 -1.5 83t-68.5 32h-65v72h65q56 0 68.5 32t1.5 83l-20 98q-18 88 18 140.5t132 52.5h89v-72h-86q-49 0 -65 -29.5t-7 -72.5l20 -98q14 -69 -3.5 -112t-61.5 -58q44 -15 61.5 -58t3.5 -112l-20 -98q-9 -43 7 -72.5
t65 -29.5h86z" />
    <glyph glyph-name="braceright.case" horiz-adv-x="377" 
d="M241 91q19 -88 -17 -140.5t-133 -52.5h-89v72h87q50 0 65.5 29.5t6.5 72.5l-20 98q-14 69 3.5 112t60.5 58q-43 15 -60.5 57.5t-3.5 112.5l20 98q9 43 -6.5 72.5t-65.5 29.5h-87v72h89q97 0 133 -52.5t17 -140.5l-20 -98q-10 -52 2 -84t68 -32h65v-72h-65q-56 0 -68 -32
t-2 -82z" />
    <glyph glyph-name="bracketleft.case" horiz-adv-x="346" 
d="M343 -30v-72h-237v883h237v-72h-155v-739h155z" />
    <glyph glyph-name="bracketright.case" horiz-adv-x="346" 
d="M239 781v-883h-237v72h155v739h-155v72h237z" />
    <glyph glyph-name="hyphen.case" horiz-adv-x="392" 
d="M56 287v72h280v-72h-280z" />
    <glyph glyph-name="endash.case" horiz-adv-x="592" 
d="M56 287v72h480v-72h-480z" />
    <glyph glyph-name="emdash.case" horiz-adv-x="792" 
d="M56 287v72h680v-72h-680z" />
    <glyph glyph-name="guillemotleft.case" horiz-adv-x="667" 
d="M322 195v-91l-284 207v53l284 204v-88l-202 -142zM612 195v-91l-284 207v53l284 204v-88l-202 -142z" />
    <glyph glyph-name="guillemotright.case" horiz-adv-x="667" 
d="M628 308l-284 -204v87l202 142l-202 143v92l284 -207v-53zM338 308l-284 -204v87l202 142l-202 143v92l284 -207v-53z" />
    <glyph glyph-name="guilsinglleft.case" horiz-adv-x="377" 
d="M322 195v-91l-284 207v53l284 204v-88l-202 -142z" />
    <glyph glyph-name="guilsinglright.case" horiz-adv-x="377" 
d="M338 308l-284 -204v87l202 142l-202 143v92l284 -207v-53z" />
    <glyph glyph-name="at.case" horiz-adv-x="950" 
d="M731 -89q-58 -26 -126.5 -41t-138.5 -15q-133 0 -226.5 54t-142.5 150t-49 223q0 104 32 192.5t91 154.5t141 102.5t181 36.5q92 0 167 -31t130 -86t84.5 -128.5t29.5 -159.5q0 -83 -28.5 -148t-78 -102t-112.5 -37q-48 0 -79.5 20t-40.5 63q-43 -48 -83.5 -68t-80.5 -20
q-47 0 -77.5 27.5t-41.5 76t-2 109.5l8 55q15 100 68.5 154.5t143.5 54.5q49 0 95.5 -16.5t90.5 -45.5l-43 -251q-10 -52 5.5 -71.5t43.5 -19.5q35 0 65.5 27t49.5 76.5t19 115.5q0 95 -42 170.5t-116.5 120t-174.5 44.5q-82 0 -150 -31t-116.5 -87.5t-75 -132.5t-26.5 -165
q0 -107 39.5 -187.5t116 -125t185.5 -44.5q62 0 124 14.5t114 39.5zM364 284q-10 -67 5.5 -103.5t53.5 -36.5q29 0 65 24t77 83l33 196q-49 27 -93 27q-59 0 -91 -36t-42 -99z" />
    <glyph glyph-name="bar.case" horiz-adv-x="295" 
d="M106 816h82v-953h-82v953z" />
    <glyph glyph-name="brokenbar.case" horiz-adv-x="282" 
d="M100 816h82v-383h-82v383zM100 246h82v-383h-82v383z" />
    <glyph glyph-name="caron.alt" horiz-adv-x="500" 
d="M277 546h-55v194h84z" />
    <glyph glyph-name="revcommaaccent" horiz-adv-x="500" 
d="M275 750l50 -14l-31 -157h-89z" />
    </font>
</defs>
</svg>
